<?xml version="1.0" standalone="no"?>
<!DOCTYPE svg PUBLIC "-//W3C//DTD SVG 1.1//EN" "http://www.w3.org/Graphics/SVG/1.1/DTD/svg11.dtd" >
<svg xmlns="http://www.w3.org/2000/svg">
<metadata>Generated by IcoMoon</metadata>
<defs>
<font id="icomoon" horiz-adv-x="1024">
<font-face units-per-em="1024" ascent="960" descent="-64" />
<missing-glyph horiz-adv-x="1024" />
<glyph unicode="&#x20;" horiz-adv-x="512" d="" />
<glyph unicode="&#xe900;" glyph-name="home-hollow" horiz-adv-x="1132" d="M495.432 934.034l-459.43-394.079c-33.657-28.87-45.169-74.92-28.35-115.801l3.569-7.751c18.020-35.24 54.794-57.215 95.241-57.215l19.437 0.047 0.048-340.991c0-46.172 38.317-82.244 84.009-82.244h197.932c45.692 0 84.009 36.070 84.009 82.244v185.839h148.003v-185.841c0-46.172 38.317-82.242 84.009-82.242h197.92l7.542 0.329c42.289 3.709 76.467 38.304 76.467 81.913l-0.053 340.993 19.552-0.047c43.334 0 82.455 25.227 98.807 64.96 16.807 40.907 5.293 86.941-28.355 115.807l-459.438 394.083c-40.351 34.617-100.569 34.617-140.918-0.004zM1015.269 467.025l-117.222-0.047-0.053-423.188h-150.312l0.007 160.294c0 59.53-48.259 107.789-107.789 107.789h-148.003l-8.044-0.296c-55.774-4.115-99.745-50.669-99.745-107.494l-0.052-160.294h-150.366l0.048 423.188-117.269 0.047 449.149 385.201h0.553l449.1-385.201z" />
<glyph unicode="&#xe901;" glyph-name="pin" d="M713.771 777.771c-16.597 16.683-43.563 16.768-60.331 0.171-4.437-4.437-7.509-9.685-9.6-15.147-35.499-74.069-74.581-115.84-123.904-140.501-55.339-27.307-118.869-46.293-221.269-46.293-5.547 0-11.093-1.067-16.299-3.243-10.453-4.352-18.731-12.672-23.083-23.083-4.309-10.411-4.309-22.187 0-32.597 2.176-5.248 5.291-9.984 9.259-13.909l138.368-138.368-193.579-258.133 258.133 193.579 138.325-138.325c3.925-4.011 8.661-7.083 13.909-9.259 5.205-2.176 10.752-3.328 16.299-3.328s11.093 1.152 16.299 3.328c10.453 4.352 18.773 12.587 23.083 23.083 2.176 5.163 3.285 10.752 3.285 16.256 0 102.4 18.944 165.931 46.208 220.416 24.619 49.323 66.389 88.405 140.501 123.904 5.504 2.091 10.709 5.163 15.104 9.6 16.597 16.768 16.512 43.733-0.171 60.331l-170.539 171.52z" />
<glyph unicode="&#xe902;" glyph-name="search" d="M731.847 315.975l292.153-292.739-87.236-87.236-292.739 292.153v46.253l-15.808 16.393c-66.744-57.377-153.395-91.92-247.657-91.92-210.187 0-380.56 170.374-380.56 380.56s170.374 380.56 380.56 380.56c210.186 0 380.56-170.374 380.56-380.56 0-94.262-34.543-180.913-91.92-247.657l16.394-15.808h46.252zM380.56 315.975c145.783 0 263.464 117.681 263.464 263.465s-117.681 263.465-263.464 263.465c-145.784 0-263.465-117.681-263.465-263.465s117.681-263.465 263.465-263.465z" />
<glyph unicode="&#xe903;" glyph-name="dribbble" d="M512 960c-282.655 0-512-229.345-512-512s229.345-512 512-512c282.1 0 512 229.345 512 512s-229.9 512-512 512zM850.186 723.992c61.085-74.412 97.736-169.372 98.847-272.104-14.438 2.777-158.82 32.208-304.312 13.883-3.332 7.218-6.109 14.993-9.44 22.768-8.885 21.102-18.882 42.759-28.877 63.306 161.041 65.527 234.342 159.93 243.783 172.148zM512 884.477c111.063 0 212.686-41.648 289.874-109.952-7.774-11.106-73.857-99.402-229.344-157.709-71.636 131.61-151.046 239.341-163.262 256 32.763 7.774 67.193 11.662 102.733 11.662zM325.97 843.384c11.661-15.548 89.405-123.835 162.151-252.668-204.356-54.42-384.833-53.314-404.269-53.314 28.321 135.5 119.948 248.229 242.117 305.982zM74.412 447.445c0 4.442 0 8.884 0 13.327 18.881-0.555 231.011-3.332 449.249 62.195 12.772-24.434 24.434-49.422 35.54-74.412-5.553-1.666-11.661-3.332-17.214-4.997-225.457-72.747-345.405-271.549-355.401-288.209-69.415 77.189-112.174 179.922-112.174 292.096zM512 10.412c-101.067 0-194.36 34.43-268.217 92.183 7.775 16.103 96.626 187.141 343.184 273.214 1.111 0.555 1.666 0.555 2.777 1.111 61.64-159.375 86.629-293.206 93.293-331.523-52.754-22.768-110.507-34.985-171.037-34.985zM755.784 85.379c-4.443 26.656-27.766 154.378-84.963 311.532 137.163 21.658 257.11-13.882 272.103-18.881-18.881-121.613-88.85-226.568-187.14-292.651z" />
<glyph unicode="&#xe904;" glyph-name="chat" horiz-adv-x="1109" d="M547.947 960c-302.623 0-547.947-192.799-547.947-430.53 0-112.564 55.030-215.187 145.128-291.899-3.444-74.756-18.943-175.265-73.738-227.085 104.658 0 211.821 68.885 275.383 118.513 62.309-19.413 130.177-30.059 201.175-30.059 302.623 0 547.947 192.799 547.947 430.53s-245.324 430.53-547.947 430.53z" />
<glyph unicode="&#xe905;" glyph-name="share" horiz-adv-x="1229" d="M750.933 686.933v273.067l477.867-477.867-477.867-477.867v279.893c-341.333 0-580.267-109.227-750.933-348.16 68.267 341.333 273.067 682.667 750.933 750.933z" />
<glyph unicode="&#xe906;" glyph-name="view" horiz-adv-x="1536" d="M768 960c-349.091 0-647.215-212.309-768-512 120.785-299.691 418.909-512 768-512s647.215 212.309 768 512c-120.785 299.691-418.909 512-768 512zM768 106.667c-192.698 0-349.091 152.917-349.091 341.333s156.393 341.333 349.091 341.333c192.698 0 349.091-152.917 349.091-341.333s-156.393-341.333-349.091-341.333zM768 652.8c-115.898 0-209.455-91.477-209.455-204.8s93.556-204.8 209.455-204.8c115.898 0 209.455 91.477 209.455 204.8s-93.556 204.8-209.455 204.8z" />
<glyph unicode="&#xe907;" glyph-name="ph" d="M1024 448c0-282.769-229.231-512-512-512s-512 229.231-512 512c0 282.769 229.231 512 512 512s512-229.231 512-512zM580.267 448.002h-145.067v153.6h145.067c42.415 0 76.8-34.389 76.8-76.8 0-42.415-34.385-76.8-76.8-76.8zM580.267 704.002h-247.467v-512h102.4v153.6h145.067c98.97 0 179.2 80.23 179.2 179.2 0 98.965-80.23 179.2-179.2 179.2z" />
<glyph unicode="&#xe908;" glyph-name="time" d="M507.611 960c279.897 0 507.611-227.715 507.611-507.611s-227.715-507.611-507.611-507.611c-279.897 0-507.611 227.715-507.611 507.611s227.715 507.611 507.611 507.611zM772.159 468.062h-228.122v274.286c0 23.082-18.714 41.796-41.796 41.796s-41.796-18.714-41.796-41.796v-316.082c0-23.082 18.714-41.796 41.796-41.796h269.918c23.082 0 41.796 18.714 41.796 41.796s-18.714 41.796-41.796 41.796z" />
<glyph unicode="&#xe909;" glyph-name="google" horiz-adv-x="1109" d="M571.948 344.515v187.958h482.578c7.218-31.832 12.889-61.642 12.889-103.579 0-288.505-197.465-493.642-494.952-493.642-284.597 0-515.575 226.358-515.575 505.263s230.977 505.263 515.575 505.263c139.205 0 255.725-50.021 344.919-131.874l-146.423-139.453c-37.121 34.358-102.084 74.779-198.496 74.779-170.655 0-309.86-138.947-309.86-309.221s139.205-309.221 309.86-309.221c197.465 0 270.161 133.895 283.566 213.221h-284.082v0.505z" />
<glyph unicode="&#xe90a;" glyph-name="invision" horiz-adv-x="1243" d="M62.642 637.506l-37.735-139.636h124.196l-80.177-328.558c-6.285-26.81-9.44-55.761-9.44-79.38 0-93.058 50.318-154.837 157.231-154.837 88.676 0 160.559 52.822 212.315 138.1l-31.603-127.222h176.085l100.635 404.839c25.146 102.506 73.885 155.708 147.791 155.708 58.174 0 94.337-36.286 94.337-96.19 0-17.361-1.578-36.266-7.863-56.772l-51.889-186.082c-7.863-26.81-10.998-53.64-10.998-78.848 0-88.343 51.876-152.962 160.36-152.962 92.766 0 166.665 59.897 207.542 203.41l-69.172 26.79c-34.593-96.15-64.472-113.531-88.046-113.531-23.594 0-36.177 15.759-36.177 47.284 0 14.19 3.162 29.942 7.863 48.906l50.324 181.295c12.576 42.569 17.296 80.324 17.296 115.001 0 135.62-81.768 206.396-180.819 206.396-92.759 0-187.103-83.921-234.259-172.245l34.579 158.534h-268.851l-37.735-139.636h125.781l-77.445-311.043c-53.506-119.269-146.372-135.348-177.517-135.348-4.269 0-7.385 0.299-9.069 0.678-23.031 5.206-37.748 13.977-37.748 43.985 0 17.315 3.136 42.183 11.005 72.172l117.932 469.191h-298.73zM290.609 946.482c-58.174 0-106.907-45.728-106.907-105.632 0-59.944 48.733-105.685 106.907-105.685 58.18 0 106.913 45.741 106.913 105.685 0 59.904-48.733 105.632-106.913 105.632z" />
<glyph unicode="&#xe90b;" glyph-name="muzli" horiz-adv-x="1336" d="M1055.783 114.283c0.457 5.081 0.889 5.97 0 0zM1325.711 120.101c-10.416 16.005-31.934 21.238-47.99 2.693-13.16-13.16-24.516-27.437-36.354-41.842-184.643-132.233-187.869-1.601-185.786 30.689 8.434 35.643 19.613 66.485 33.458 99.562 33.941 84.751 79.721 155.046 116.507 239.772 22.61 53.681 48.066 107.336 67.857 163.811 14.151 39.505 5.665 81.88-22.61 115.77-31.121 31.070-70.702 36.735-118.793 25.405-65.062-16.945-124.433-50.835-175.345-93.185-8.485-8.485-19.816-14.1-28.301-22.585 0 8.485 2.845 14.1 2.845 19.765 14.125 45.17 31.096 87.545 11.305 138.381-8.485 22.56-19.79 42.35-42.426 56.475-48.066 25.379-93.338 19.79-135.738 8.46-70.702-19.765-127.304-62.115-178.19-110.13-14.125-14.125-31.096-28.199-45.246-45.195 5.64 31.070 14.151 59.346 14.151 90.391 0 76.266-45.246 124.23-121.613 149.66-59.397 16.92-118.793 14.151-178.19 2.82-59.397-11.305-115.948-31.045-166.859-64.935-33.941-22.61-65.062-48.015-82.007-90.391-8.511-22.585-8.511-47.99 0-73.395 11.331-31.070 45.272-48.041 79.212-22.585 39.581 25.43 73.522 56.45 113.103 84.675 59.397 45.221 118.768 84.751 197.98 90.416 25.456 2.82 48.091-8.511 56.551-33.916 2.845-11.28 5.64-28.25 0-39.53-8.46-28.25-16.97-56.475-31.096-81.905-36.761-64.96-76.393-127.050-118.793-192.036-53.731-81.905-113.128-163.76-166.885-245.64-39.555-59.295-76.342-121.461-110.257-180.756-16.97-28.25-28.326-59.295-22.661-93.185 5.691-47.99 70.727-73.42 101.848-59.295 31.070 14.1 48.066 39.53 65.011 64.935 31.146 53.681 62.242 107.31 93.338 160.965 79.187 144.020 166.885 282.401 268.682 409.476 50.911 64.96 107.463 124.23 175.37 172.245 31.070 19.79 62.191 36.735 101.797 39.53 14.151 2.845 25.456-5.64 28.276-19.74 2.82-16.97 8.485-36.735 2.82-53.655-11.305-36.71-25.456-73.42-45.246-107.31-70.702-121.435-144.198-242.871-214.951-364.306-31.096-50.835-59.397-107.285-84.827-160.94-14.125-28.276 0-67.78 31.121-81.905 33.941-16.92 73.496-16.92 90.518 16.945 62.191 121.435 127.253 242.871 192.29 361.461 50.911 96.031 118.768 180.705 212.106 242.845 33.941 22.61 67.857 39.53 110.308 48.015 22.636 5.665 39.606-5.665 36.761-28.225 0-14.125-2.82-28.25-11.331-39.555-28.276-53.655-59.371-104.465-87.672-158.146-48.066-81.88-98.978-163.76-124.433-259.791-11.305-42.375-19.79-87.545-2.82-135.535 23.322-63.461 89.247-113.077 160.153-115.033 2.54-0.508 5.462-0.965 8.816-1.321 35.999-1.982 69.457 7.113 101.797 20.959 32.417 13.846 62.115 32.137 86.732 57.542 16.437 16.996 30.892 35.186 35.11 61.073 1.931 13.769-1.321 28.072-9.4 41.232z" />
<glyph unicode="&#xe90c;" glyph-name="menu" horiz-adv-x="284" d="M121.905 716.19c-67.326 0-121.905 54.579-121.905 121.905s54.579 121.905 121.905 121.905c67.326 0 121.904-54.579 121.904-121.905s-54.579-121.905-121.904-121.905zM121.905 326.095c-67.326 0-121.905 54.579-121.905 121.905s54.579 121.905 121.905 121.905c67.326 0 121.904-54.579 121.904-121.905s-54.579-121.905-121.904-121.905zM121.905-64c-67.326 0-121.905 54.579-121.905 121.905s54.579 121.905 121.905 121.905c67.326 0 121.904-54.579 121.904-121.905s-54.579-121.905-121.904-121.905z" />
<glyph unicode="&#xe90d;" glyph-name="notification" horiz-adv-x="910" d="M341.821 33.036c0-53.638 43.398-97.036 97.036-97.036s97.036 43.398 97.036 97.036h-194.072zM774.339 237.349v283.794c0 158.476-109.714 291.109-257.95 326.217v35.109c0 42.91-34.621 77.531-77.531 77.531s-77.531-34.621-77.531-77.531v-35.109c-148.236-35.109-257.95-167.741-257.95-326.217v-283.794l-103.375-103.375v-51.688h877.714v51.688l-103.375 103.375z" />
<glyph unicode="&#xe90e;" glyph-name="like" horiz-adv-x="1138" d="M558.545-64l-80.989 73.661c-287.651 260.604-477.557 432.48-477.557 643.418 0 171.876 135.168 306.921 307.2 306.921 97.187 0 190.464-45.201 251.345-116.63 60.881 71.429 154.159 116.63 251.345 116.63 172.032 0 307.2-135.045 307.2-306.921 0-210.938-189.905-382.814-477.556-643.976l-80.989-73.103z" />
<glyph unicode="&#xe90f;" glyph-name="user" d="M512 923.429c141.615 0 256-114.385 256-256s-114.385-256-256-256c-141.615 0-256 114.385-256 256s114.385 256 256 256zM36.571-27.428v109.714c0 153.947 260.398 263.314 475.429 263.314s475.429-109.367 475.429-263.314v-109.714h-950.857z" />
<glyph unicode="&#xe910;" glyph-name="star" d="M512 178.176l316.416-190.976-83.968 359.936 279.552 242.176-368.128 31.232-143.872 339.456-143.872-339.456-368.128-31.232 279.552-242.176-83.968-359.936z" />
<glyph unicode="&#xe911;" glyph-name="bolt" horiz-adv-x="512" d="M0 960v-563.2h153.6v-460.8l358.4 614.4h-204.8l204.8 409.6z" />
<glyph unicode="&#xe912;" glyph-name="close" d="M503.424 577.256l-301.286 301.286c-33.603 33.603-87.768 33.738-121.093 0.413-33.557-33.557-33.14-87.54 0.413-121.093l301.286-301.286-301.286-301.286c-33.603-33.603-33.738-87.768-0.413-121.093 33.557-33.557 87.54-33.14 121.093 0.413l301.286 301.286 301.286-301.286c33.603-33.603 87.768-33.738 121.093-0.413 33.557 33.557 33.14 87.54-0.413 121.093l-301.286 301.286 301.286 301.286c33.603 33.603 33.738 87.768 0.413 121.093-33.557 33.557-87.54 33.14-121.093-0.413l-301.286-301.286z" />
<glyph unicode="&#xe913;" glyph-name="link" horiz-adv-x="2048" d="M194.56 448c0 175.104 142.336 317.44 317.44 317.44h409.6v194.56h-409.6c-282.624 0-512-229.376-512-512s229.376-512 512-512h409.6v194.56h-409.6c-175.104 0-317.44 142.336-317.44 317.44zM614.4 345.6h819.2v204.8h-819.2v-204.8zM1536 960h-409.6v-194.56h409.6c175.104 0 317.44-142.336 317.44-317.44s-142.336-317.44-317.44-317.44h-409.6v-194.56h409.6c282.624 0 512 229.376 512 512s-229.376 512-512 512z" />
<glyph unicode="&#xe914;" glyph-name="home" horiz-adv-x="1138" d="M1118.667 505.056l-510.483 440.443c-22.407 19.335-56.195 19.333-78.593 0.002l-510.485-440.447c-17.949-15.487-23.878-39.348-15.109-60.788 8.771-21.439 30.127-35.291 54.409-35.291h81.533v-441.291c0-17.496 14.982-31.685 33.46-31.685h279.808c18.478 0 33.46 14.186 33.46 31.685v267.938h164.448v-267.94c0-17.496 14.982-31.683 33.46-31.683h279.795c18.478 0 33.46 14.184 33.46 31.683v441.293h81.549c24.28 0 45.638 13.854 54.409 35.291 8.758 21.442 2.829 45.301-15.12 60.79z" />
<glyph unicode="&#xe915;" glyph-name="slack" d="M218.013 314.219c0-58.632-47.897-106.529-106.529-106.529s-106.529 47.897-106.529 106.529c0 58.632 47.897 106.529 106.529 106.529h106.529v-106.529zM271.69 314.219c0 58.632 47.897 106.529 106.529 106.529s106.529-47.897 106.529-106.529v-266.735c0-58.632-47.897-106.529-106.529-106.529s-106.529 47.897-106.529 106.529c0 0 0 266.735 0 266.735zM378.219 741.987c-58.632 0-106.529 47.897-106.529 106.529s47.897 106.529 106.529 106.529c58.632 0 106.529-47.897 106.529-106.529v-106.529h-106.529zM378.219 688.31c58.632 0 106.529-47.897 106.529-106.529s-47.897-106.529-106.529-106.529h-266.735c-58.632 0-106.529 47.897-106.529 106.529s47.897 106.529 106.529 106.529c0 0 266.735 0 266.735 0zM805.987 581.781c0 58.632 47.897 106.529 106.529 106.529s106.529-47.897 106.529-106.529c0-58.632-47.897-106.529-106.529-106.529h-106.529v106.529zM752.31 581.781c0-58.632-47.897-106.529-106.529-106.529s-106.529 47.897-106.529 106.529v266.735c0 58.632 47.897 106.529 106.529 106.529s106.529-47.897 106.529-106.529v-266.735zM645.781 154.013c58.632 0 106.529-47.897 106.529-106.529s-47.897-106.529-106.529-106.529c-58.632 0-106.529 47.897-106.529 106.529v106.529h106.529zM645.781 207.69c-58.632 0-106.529 47.897-106.529 106.529s47.897 106.529 106.529 106.529h266.735c58.632 0 106.529-47.897 106.529-106.529s-47.897-106.529-106.529-106.529h-266.735z" />
<glyph unicode="&#xe916;" glyph-name="linkedin" d="M22.593-53.629h208.91v633.257h-208.91zM130.312 883.2c-71.813 0-117.512-45.699-117.512-107.719s45.699-107.719 117.512-107.719c71.813 0 117.512 48.963 117.512 107.719s-45.699 107.719-117.512 107.719v0zM992.064 308.698v-362.328h-208.91v339.478c0 84.87-29.378 143.625-107.719 143.625-58.756 0-91.398-39.171-107.719-78.341-6.528-13.057-6.528-32.642-6.528-52.227v-352.535h-208.91c0 0 3.264 571.237 0 629.993h208.91v-88.134c29.378 42.435 78.341 104.455 189.324 104.455 137.097 0 241.552-88.134 241.552-283.987v0z" />
<glyph unicode="&#xe917;" glyph-name="twitter" horiz-adv-x="1280" d="M1237.176 843.163c-44.433-20.144-92.905-32.231-141.377-40.289 52.511 32.231 88.866 80.577 109.062 136.981-48.472-28.202-100.984-48.346-157.534-60.433-48.472 52.375-113.102 80.577-181.77 80.577-137.338 0-250.439-112.808-250.439-249.789 0-20.144 4.039-40.289 8.079-56.404-206.007 12.087-391.816 108.779-512.997 261.875-20.197-36.26-32.315-80.577-32.315-124.894 0-84.606 44.433-161.154 109.062-205.471-40.393 0-80.787 12.087-113.102 28.202v-4.029c0-120.866 84.826-221.587 197.928-241.731-20.197-4.029-44.433-8.058-64.63-8.058-16.157 0-32.315 0-48.472 4.029 32.315-96.692 125.22-169.212 230.243-173.241-84.826-68.49-193.889-104.75-306.99-104.75-20.197 0-40.393 0-60.59 4.029 109.062-68.49 242.361-112.808 379.698-112.808 456.446 0 706.885 378.712 706.885 705.049v32.231c52.511 36.26 96.944 80.577 129.259 128.923z" />
<glyph unicode="&#xe918;" glyph-name="facebook" horiz-adv-x="585" d="M170.523-52.016v453.829h-152.238v176.055h152.238v129.107c0 152.581 89.781 234.739 226.405 234.739 66.36 0 121.009-3.912 136.624-7.825v-156.493h-93.685c-70.264 0-85.878-35.211-85.878-86.071v-113.457h175.659l-23.421-176.055h-152.238v-453.829h-183.466z" />
<glyph unicode="&#xe919;" glyph-name="plus" d="M585.143 521.143v365.214c0 40.733-32.747 73.644-73.143 73.644-40.677 0-73.143-32.971-73.143-73.644v-365.214h-365.214c-40.733 0-73.644-32.747-73.644-73.143 0-40.677 32.971-73.143 73.644-73.143h365.214v-365.214c0-40.733 32.747-73.644 73.143-73.644 40.677 0 73.143 32.971 73.143 73.644v365.214h365.214c40.733 0 73.644 32.747 73.644 73.143 0 40.677-32.971 73.143-73.644 73.143h-365.214z" />
<glyph unicode="&#xe91a;" glyph-name="check" horiz-adv-x="1339" d="M482.751 318.89l-306.34 306.34-167.095-167.095 473.435-473.435 807.625 807.625-167.095 167.095-640.53-640.53z" />
<glyph unicode="&#xe91b;" glyph-name="community" horiz-adv-x="1579" d="M1272.8 573.44c171.022-11.52 305.867-148.48 305.867-317.44 0-176.64-147.342-320-328.889-320h-855.111c-217.724 0-394.667 172.16-394.667 384 0 197.76 153.92 360.96 351.911 381.44 82.222 153.6 247.324 258.56 437.422 258.56 239.431 0 438.738-165.76 483.467-386.56zM906.579 478.476c52.681 0 94.889 39.972 94.889 89.489s-42.208 89.489-94.889 89.489c-52.681 0-95.207-39.972-95.207-89.489s42.526-89.489 95.207-89.489zM652.694 478.476c52.681 0 94.889 39.972 94.889 89.489s-42.208 89.489-94.889 89.489c-52.681 0-95.207-39.972-95.207-89.489s42.526-89.489 95.207-89.489zM652.694 418.817c-73.944 0-222.149-34.901-222.149-104.404v-74.574h444.298v74.574c0 69.503-148.205 104.404-222.149 104.404zM906.579 418.817c-9.203 0-19.676-0.597-30.783-1.491 36.813-25.057 62.519-58.765 62.519-102.913v-74.574h190.413v74.574c0 69.503-148.205 104.404-222.149 104.404z" />
<glyph unicode="&#xe91c;" glyph-name="upload" horiz-adv-x="1536" d="M1238.4 573.44c-43.52 220.8-237.44 386.56-470.4 386.56-184.96 0-345.6-104.96-425.6-258.56-192.64-20.48-342.4-183.68-342.4-381.44 0-211.84 172.16-384 384-384h832c176.64 0 320 143.36 320 320 0 168.96-131.2 305.92-297.6 317.44zM877.714 411.429v-219.429h-219.428v219.429h-164.572l274.286 274.286 274.286-274.286h-164.572z" />
<glyph unicode="&#xe91d;" glyph-name="behance" horiz-adv-x="1536" d="M1393.073 809.683h-369.47v91.774h369.501v-91.774h-0.031zM777.638 433.349c23.84-36.925 35.753-81.76 35.753-134.397 0-54.433-13.432-103.265-40.758-146.399-17.385-28.543-38.969-52.654-64.903-72.065-29.209-22.448-63.789-37.841-103.543-46.065-39.881-8.238-83.045-12.4-129.542-12.4h-413.204v917.497h443.098c111.688-1.817 190.87-34.176 237.628-97.725 28.057-38.976 41.958-85.743 41.958-140.105 0-56.093-14.069-100.975-42.4-135.076-15.76-19.119-39.041-36.511-69.86-52.208 46.682-17.090 82.103-44.001 105.775-81.057zM273.037 577.797h194.147c39.898 0 72.15 7.583 96.991 22.743 24.824 15.136 37.21 42.040 37.21 80.67 0 42.678-16.401 71.005-49.281 84.64-28.262 9.472-64.423 14.351-108.301 14.351h-170.767v-202.403zM620.080 312.058c0 47.659-19.479 80.608-58.359 98.287-21.742 10.048-52.418 15.184-91.75 15.55h-196.935v-244.508h193.887c39.833 0 70.663 5.214 92.912 16.092 40.124 20 60.244 58.064 60.244 114.578zM1530.158 461.32c4.464-30.018 6.483-73.57 5.663-130.495h-478.505c2.64-66.048 25.441-112.237 68.685-138.668 26.079-16.575 57.697-24.67 94.722-24.67 39.041 0 70.861 9.87 95.356 30.158 13.346 10.754 25.119 25.935 35.297 45.088h175.388c-4.594-39.010-25.712-78.575-63.662-118.781-58.798-63.906-141.26-95.949-247.165-95.949-87.488 0-164.593 27.025-231.519 80.879-66.703 54.043-100.204 141.689-100.204 263.271 0 114.013 30.076 201.278 90.43 262.019 60.577 60.854 138.754 91.143 235.118 91.143 57.118 0 108.606-10.209 154.541-30.734 45.791-20.545 83.635-52.88 113.44-97.321 26.973-39.137 44.32-84.389 52.414-135.94zM1357.523 444.199c-3.216 45.671-18.464 80.238-45.921 103.862-27.23 23.689-61.249 35.582-101.839 35.582-44.176 0-78.287-12.712-102.525-37.697-24.402-24.934-39.586-58.832-45.808-101.75l296.093 0.003z" />
<glyph unicode="&#xe91e;" glyph-name="bin" horiz-adv-x="910" d="M599.23 865.185v94.815h-288.237v-94.815h-284.444v-132.741h857.126v132.741zM121.363 607.289v-652.326h667.496v652.326z" />
<glyph unicode="&#xe91f;" glyph-name="stage" horiz-adv-x="1336" d="M1126.713 779.137v-217.884l-180.863-145.149v363.033h-208.939v180.863h598.741v-180.863h-208.939zM291.119 958.047c-18.73-0.91-37.532-2.441-56.117-5.247-22.66-3.418-44.995-8.732-66.462-17.128-123.302-48.196-189.322-207.863-162.687-339.707 18.45-91.356 79.807-172.104 160.636-209.433 76.311-35.242 160.627-31.547 245.042-27.841 33.945 1.484 67.908 2.978 101.374 1.934 25.154-0.785 50.877-3.217 73.691-14.476 44.11-21.781 70.212-78.22 59.415-128.513-10.788-50.302-57.364-89.221-106.036-88.646v-182.243c85.292 0.306 169.824 42.193 224.062 111.95 54.22 69.738 76.862 166.12 58.963 254.479-17.881 88.369-76.175 166.694-153.453 204.914-101.428 50.159-219.373 30.407-331.3 29.191-41.029-0.45-84.912 2.757-117.665 28.962-28.678 22.959-44.588 62.653-40.242 100.461 4.328 37.808 28.741 72.303 61.782 87.306 25.768 11.709 54.726 11.824 82.771 11.747 90.306-0.249 180.621-0.507 270.937-0.756v182.204c0-0.048-26.057 0.67-64.177 1.398-36.872 0.699-85.021 1.398-131.786 1.398-39.881 0-78.759-0.507-108.747-1.953z" />
<glyph unicode="&#xe920;" glyph-name="images" horiz-adv-x="1097" d="M976.457 674.743l54.857-10.971c40.229-7.314 65.829-43.886 58.514-84.114l-98.743-563.2c-7.314-40.229-43.886-65.829-84.114-58.514l-621.714 109.714c-32.914 3.657-54.857 29.257-58.514 58.514h676.571c40.229 0 73.143 32.914 73.143 73.143v475.429zM73.143 960h731.429c40.229 0 73.143-32.914 73.143-73.143v-585.143c0-40.229-32.914-73.143-73.143-73.143h-731.429c-40.229 0-73.143 32.914-73.143 73.143v585.143c0 40.229 32.914 73.143 73.143 73.143zM369.371 594.286l-138.971-175.543h416.914l-102.4 138.971-73.143-95.086-102.4 131.657zM614.4 696.686c0 29.257-25.6 51.2-54.857 51.2s-51.2-21.943-51.2-51.2c0-29.257 21.943-51.2 51.2-51.2s54.857 21.943 54.857 51.2z" />
<glyph unicode="&#xe921;" glyph-name="users" horiz-adv-x="1451" d="M1065.316 433.29c91.383 0 164.6 73.767 164.6 165.15s-73.217 165.15-164.6 165.15c-91.383 0-165.15-73.767-165.15-165.15s73.767-165.15 165.15-165.15zM483.556 545.524c114.672 0 206.547 92.566 206.547 207.238s-91.876 207.238-206.547 207.238c-114.672 0-207.238-92.566-207.238-207.238s92.566-207.238 207.238-207.238zM429.54 414.423l-133.965 98.13c-146.183-46.796-295.575-143.359-295.575-289.4v-144.931c0-47.128 38.205-85.333 85.333-85.333h881.778v230.265c0 151.895-161.61 250.267-313.129 294.788l-119.147-100.031c-30.106-25.276-73.583-26.715-105.295-3.486zM1098.127 229.162v-236.274h267.206c47.128 0 85.333 38.205 85.333 85.333v76.354c0 107.922-131.86 177.365-253.827 208.090l-73.491-72.936c-16.143-16.021-25.222-37.824-25.222-60.568z" />
<glyph unicode="&#xe922;" glyph-name="refresh" d="M872.96 809.6c-92.8 92.8-220.16 150.4-361.6 150.4-282.88 0-511.36-229.12-511.36-512s228.48-512 511.36-512c238.72 0 437.76 163.2 494.72 384h-133.12c-52.48-149.12-194.56-256-361.6-256-211.84 0-384 172.16-384 384s172.16 384 384 384c106.24 0 200.96-44.16 270.080-113.92l-206.080-206.080h448v448l-150.4-150.4z" />
<glyph unicode="&#xe923;" glyph-name="play" horiz-adv-x="768" d="M130.218 925.371l560.156-399.928c36.822-26.289 45.36-77.45 19.071-114.272-5.26-7.367-11.704-13.811-19.071-19.071l-560.156-399.928c-36.822-26.289-87.983-17.751-114.272 19.071-9.918 13.891-15.249 30.533-15.249 47.601v799.855c0 45.243 36.677 81.92 81.92 81.92 17.068 0 33.71-5.331 47.601-15.249z" />
<glyph unicode="&#xe924;" glyph-name="right" horiz-adv-x="658" d="M492.099 295.031l-332.484-332.484c-36.725-36.725-96.269-36.725-132.994 0v0c-36.725 36.725-36.725 96.269 0 132.994l332.484 332.484-332.485 332.485c-36.725 36.725-36.725 96.269 0 132.994v0c36.725 36.725 96.269 36.725 132.994 0l465.478-465.478-132.994-132.994z" />
<glyph unicode="&#xe925;" glyph-name="fav" horiz-adv-x="683" d="M585.143 960h-487.619c-53.638 0-97.037-51.2-97.037-113.778l-0.488-910.222 341.333 170.667 341.333-170.667v910.222c0 62.578-43.886 113.778-97.524 113.778z" />
<glyph unicode="&#xe926;" glyph-name="plus-lite" d="M1024 374.857h-438.857v-438.857h-146.286v438.857h-438.857v146.286h438.857v438.857h146.286v-438.857h438.857z" />
<glyph unicode="&#xe927;" glyph-name="check-lite" horiz-adv-x="1303" d="M1244.063 785.112l-789.902-789.902-394.951 394.951 131.65 131.65 263.301-263.301 658.252 658.252z" />
<glyph unicode="&#xe928;" glyph-name="fill" d="M771.448 421.496l-508.516 538.504-80.202-84.932 135.377-143.36-292.937-310.212c-33.56-35.539-33.56-92.762 0-127.699l312.845-331.294c16.495-17.468 38.679-26.504 60.294-26.504s43.798 9.035 60.294 26.504l312.845 331.294c33.56 34.936 33.56 92.16 0 127.699v0zM125.849 357.647l272.46 288.527 272.46-288.527h-544.92zM910.238 267.294c0 0-113.762-130.711-113.762-210.824 0-66.259 51.193-120.471 113.762-120.471s113.762 54.212 113.762 120.471c0 80.113-113.762 210.824-113.762 210.824z" />
<glyph unicode="&#xe929;" glyph-name="image" d="M1024 49.778v796.444c0 62.578-51.2 113.778-113.778 113.778h-796.444c-62.578 0-113.778-51.2-113.778-113.778v-796.444c0-62.578 51.2-113.778 113.778-113.778h796.444c62.578 0 113.778 51.2 113.778 113.778zM312.889 362.667l142.222-171.236 199.111 256.569 256-341.333h-796.444l199.111 256z" />
<glyph unicode="&#xe92a;" glyph-name="download" d="M477.867 251.733c17.067-21.333 51.2-21.333 68.267 0l256 268.8c21.333 21.333 0 55.467-34.133 55.467h-170.667c0 0 8.533 196.267 0 298.667-4.267 46.933-38.4 85.333-85.333 85.333s-81.067-38.4-85.333-85.333c-8.533-98.133 0-298.667 0-298.667h-170.667c-34.133 0-55.467-34.133-34.133-59.733l256-264.533zM810.667 149.333h-597.333c-46.933 0-85.333-38.4-85.333-85.333v0c0-25.6 17.067-42.667 42.667-42.667h682.667c25.6 0 42.667 17.067 42.667 42.667v0c0 46.933-38.4 85.333-85.333 85.333z" />
<glyph unicode="&#xe92b;" glyph-name="instagram" d="M511.839 959.677c-139.008 0-156.438-0.589-211.031-3.080-54.479-2.485-91.687-11.138-124.243-23.792-33.658-13.078-62.202-30.58-90.659-59.034-28.455-28.457-45.956-57.001-59.034-90.659-12.654-32.557-21.307-69.764-23.792-124.243-2.491-54.593-3.080-72.023-3.080-211.031 0-139.006 0.589-156.436 3.080-211.029 2.485-54.479 11.138-91.687 23.792-124.243 13.078-33.658 30.58-62.202 59.034-90.659 28.457-28.455 57.001-45.956 90.659-59.036 32.557-12.652 69.764-21.305 124.243-23.79 54.593-2.491 72.023-3.080 211.031-3.080 139.006 0 156.436 0.589 211.029 3.080 54.479 2.485 91.687 11.138 124.243 23.79 33.658 13.080 62.202 30.582 90.659 59.036 28.455 28.457 45.956 57.001 59.036 90.659 12.652 32.557 21.305 69.764 23.79 124.243 2.491 54.593 3.080 72.023 3.080 211.029 0 139.008-0.589 156.438-3.080 211.031-2.485 54.479-11.138 91.687-23.79 124.243-13.080 33.658-30.582 62.202-59.036 90.659-28.457 28.455-57.001 45.956-90.659 59.034-32.557 12.654-69.764 21.307-124.243 23.792-54.593 2.491-72.023 3.080-211.029 3.080zM511.839 867.454c136.665 0 152.854-0.522 206.826-2.985 49.904-2.276 77.005-10.614 95.041-17.623 23.891-9.285 40.942-20.376 58.852-38.288 17.912-17.91 29.003-34.96 38.288-58.852 7.010-18.036 15.348-45.137 17.623-95.041 2.462-53.971 2.985-70.16 2.985-206.828 0-136.665-0.522-152.854-2.985-206.826-2.276-49.904-10.614-77.005-17.623-95.041-9.285-23.891-20.376-40.942-38.288-58.852-17.91-17.912-34.96-29.003-58.852-38.288-18.036-7.010-45.137-15.348-95.041-17.623-53.963-2.462-70.15-2.985-206.826-2.985-136.678 0-152.862 0.522-206.828 2.985-49.904 2.276-77.005 10.614-95.041 17.623-23.891 9.285-40.942 20.376-58.852 38.288-17.91 17.91-29.003 34.96-38.288 58.852-7.010 18.036-15.348 45.137-17.623 95.041-2.462 53.971-2.985 70.16-2.985 206.826s0.522 152.856 2.985 206.828c2.276 49.904 10.614 77.005 17.623 95.041 9.285 23.891 20.376 40.942 38.288 58.852 17.91 17.912 34.96 29.003 58.852 38.288 18.036 7.010 45.137 15.348 95.041 17.623 53.971 2.462 70.16 2.985 206.828 2.985zM511.839 277.226c-94.228 0-170.614 76.386-170.614 170.612 0 94.228 76.386 170.614 170.614 170.614 94.226 0 170.612-76.386 170.612-170.614 0-94.226-76.386-170.612-170.612-170.612zM511.839 710.674c-145.162 0-262.837-117.675-262.837-262.837 0-145.16 117.675-262.835 262.837-262.835 145.16 0 262.835 117.675 262.835 262.835 0 145.162-117.675 262.837-262.835 262.837zM846.48 721.059c0-33.922-27.5-61.42-61.422-61.42-33.92 0-61.42 27.498-61.42 61.42s27.5 61.422 61.42 61.422c33.922 0 61.422-27.5 61.422-61.422z" />
<glyph unicode="&#xe92c;" glyph-name="camera" horiz-adv-x="1161" d="M398.222 960l-104.107-113.778h-180.338c-62.578 0-113.778-51.2-113.778-113.778v-682.667c0-62.578 51.2-113.778 113.778-113.778h910.222c62.578 0 113.778 51.2 113.778 113.778v682.667c0 62.578-51.2 113.778-113.778 113.778h-180.338l-104.107 113.778h-341.333zM568.889 106.667c-157.013 0-284.444 127.431-284.444 284.444s127.431 284.444 284.444 284.444c157.013 0 284.444-127.431 284.444-284.444s-127.431-284.444-284.444-284.444zM750.933 391.111c0-121.363-60.681-182.044-182.044-182.044s-182.044 60.681-182.044 182.044c0 121.363 60.681 182.044 182.044 182.044s182.044-60.681 182.044-182.044z" />
<glyph unicode="&#xe92d;" glyph-name="lightness" d="M874.157 298.157l149.843 149.843-149.843 149.843v212.315h-212.315l-149.843 149.843-149.843-149.843h-212.315v-212.315l-149.843-149.843 149.843-149.843v-212.315h212.315l149.843-149.843 149.843 149.843h212.315v212.315zM512 176.382v543.236c149.843 0 271.618-121.775 271.618-271.618s-121.775-271.618-271.618-271.618z" />
<glyph unicode="&#xe92e;" glyph-name="lock" horiz-adv-x="755" d="M660.211 618.667h-47.158v97.524c0 134.583-105.634 243.81-235.789 243.81s-235.789-109.227-235.789-243.81v-97.524h-47.158c-51.874 0-94.316-43.886-94.316-97.524v-487.619c0-53.638 42.442-97.524 94.316-97.524h565.895c51.874 0 94.316 43.886 94.316 97.524v487.619c0 53.638-42.442 97.524-94.316 97.524zM377.263 179.81c-51.874 0-94.316 43.886-94.316 97.524s42.442 97.524 94.316 97.524c51.874 0 94.316-43.886 94.316-97.524s-42.442-97.524-94.316-97.524zM523.453 618.667h-292.379v97.524c0 83.383 65.549 151.162 146.189 151.162s146.189-67.779 146.189-151.162v-97.524z" />
<glyph unicode="&#xe92f;" glyph-name="pick" d="M1007.432 810.261l-133.111 133.102c-22.185 22.184-58.023 22.184-80.208 0l-177.481-177.469-109.788 108.643-80.208-80.202 80.777-80.771-507.413-507.378v-270.185h270.203l507.413 507.378 80.777-80.771 80.208 80.202-109.219 109.212 177.481 177.469c22.754 22.752 22.754 58.587 0.569 80.771v0zM222.989 49.762l-109.219 109.212 458.492 458.461 109.219-109.212-458.492-458.461z" />
<glyph unicode="&#xe930;" glyph-name="copy" horiz-adv-x="896" d="M651.636 960h-558.545c-51.2 0-93.091-41.891-93.091-93.091v-651.636h93.091v651.636h558.545v93.091zM791.273 773.818h-512c-51.2 0-93.091-41.891-93.091-93.091v-651.636c0-51.2 41.891-93.091 93.091-93.091h512c51.2 0 93.091 41.891 93.091 93.091v651.636c0 51.2-41.891 93.091-93.091 93.091z" />
<glyph unicode="&#xe931;" glyph-name="studio" d="M0-64v1024h1024v-1024h-1024zM391.695 414.72c0-168.667 238.457-87.903 238.457-190.64 0-38.005-33.632-58.792-91.914-58.792-57.661 0-88.304 30.296-91.308 75.44h-72.073c2.382-68.901 46.253-140.156 159.77-140.156 102.094 0 169.373 49.898 169.373 126.479 0 168.667-240.262 96.797-240.262 189.455 0 37.405 30.643 58.192 80.492 58.192 54.672 0 82.889-33.265 83.51-74.825h71.481c-1.805 78.98-54.657 139.557-154.991 139.557-94.888 0-152.535-57.622-152.535-124.709zM768 100.571h91.429v91.429h-91.429v-91.429z" />
<glyph unicode="&#xe932;" glyph-name="bolt-strong" horiz-adv-x="843" d="M833.477 591.754c-7.64 16.415-24.101 26.913-42.204 26.913h-256.543l171.691 269.799c9.12 14.333 9.706 32.495 1.533 47.386s-23.813 24.148-40.802 24.148h-279.273c-16.611 0-31.961-8.85-40.28-23.223l-341.333-589.576c-8.338-14.401-8.353-32.154-0.043-46.57 8.313-14.417 23.685-23.298 40.324-23.298h280.393l-77.058-282.54c-5.75-21.079 3.938-43.318 23.285-53.465 6.851-3.593 14.262-5.328 21.6-5.328 13.383 0 26.537 5.772 35.623 16.567l496.485 589.576c11.664 13.846 14.24 33.199 6.603 49.611z" />
<glyph unicode="&#xe933;" glyph-name="grid-masonry" horiz-adv-x="1152" d="M64 960h128c35.346 0 64-28.654 64-64v-128c0-35.346-28.654-64-64-64h-128c-35.346 0-64 28.654-64 64v128c0 35.346 28.654 64 64 64zM64 576h128c35.346 0 64-28.654 64-64v-512c0-35.346-28.654-64-64-64h-128c-35.346 0-64 28.654-64 64v512c0 35.346 28.654 64 64 64zM960 960h128c35.346 0 64-28.654 64-64v-512c0-35.346-28.654-64-64-64h-128c-35.346 0-64 28.654-64 64v512c0 35.346 28.654 64 64 64zM512 960h128c35.346 0 64-28.654 64-64v-320c0-35.346-28.654-64-64-64h-128c-35.346 0-64 28.654-64 64v320c0 35.346 28.654 64 64 64zM512 384h128c35.346 0 64-28.654 64-64v-320c0-35.346-28.654-64-64-64h-128c-35.346 0-64 28.654-64 64v320c0 35.346 28.654 64 64 64zM960 192h128c35.346 0 64-28.654 64-64v-128c0-35.346-28.654-64-64-64h-128c-35.346 0-64 28.654-64 64v128c0 35.346 28.654 64 64 64z" />
<glyph unicode="&#xe934;" glyph-name="grid-small" horiz-adv-x="1152" d="M64 960h128c35.346 0 64-28.654 64-64v-128c0-35.346-28.654-64-64-64h-128c-35.346 0-64 28.654-64 64v128c0 35.346 28.654 64 64 64zM64 576h128c35.346 0 64-28.654 64-64v-128c0-35.346-28.654-64-64-64h-128c-35.346 0-64 28.654-64 64v128c0 35.346 28.654 64 64 64zM64 192h128c35.346 0 64-28.654 64-64v-128c0-35.346-28.654-64-64-64h-128c-35.346 0-64 28.654-64 64v128c0 35.346 28.654 64 64 64zM512 960h128c35.346 0 64-28.654 64-64v-128c0-35.346-28.654-64-64-64h-128c-35.346 0-64 28.654-64 64v128c0 35.346 28.654 64 64 64zM512 576h128c35.346 0 64-28.654 64-64v-128c0-35.346-28.654-64-64-64h-128c-35.346 0-64 28.654-64 64v128c0 35.346 28.654 64 64 64zM512 192h128c35.346 0 64-28.654 64-64v-128c0-35.346-28.654-64-64-64h-128c-35.346 0-64 28.654-64 64v128c0 35.346 28.654 64 64 64zM960 960h128c35.346 0 64-28.654 64-64v-128c0-35.346-28.654-64-64-64h-128c-35.346 0-64 28.654-64 64v128c0 35.346 28.654 64 64 64zM960 576h128c35.346 0 64-28.654 64-64v-128c0-35.346-28.654-64-64-64h-128c-35.346 0-64 28.654-64 64v128c0 35.346 28.654 64 64 64zM960 192h128c35.346 0 64-28.654 64-64v-128c0-35.346-28.654-64-64-64h-128c-35.346 0-64 28.654-64 64v128c0 35.346 28.654 64 64 64z" />
<glyph unicode="&#xe935;" glyph-name="grid-big" horiz-adv-x="1152" d="M64 960h384c35.346 0 64-28.654 64-64v-320c0-35.346-28.654-64-64-64h-384c-35.346 0-64 28.654-64 64v320c0 35.346 28.654 64 64 64zM64 384h384c35.346 0 64-28.654 64-64v-320c0-35.346-28.654-64-64-64h-384c-35.346 0-64 28.654-64 64v320c0 35.346 28.654 64 64 64zM704 960h384c35.346 0 64-28.654 64-64v-320c0-35.346-28.654-64-64-64h-384c-35.346 0-64 28.654-64 64v320c0 35.346 28.654 64 64 64zM704 384h384c35.346 0 64-28.654 64-64v-320c0-35.346-28.654-64-64-64h-384c-35.346 0-64 28.654-64 64v320c0 35.346 28.654 64 64 64z" />
<glyph unicode="&#xe936;" glyph-name="warning" horiz-adv-x="1252" d="M98.671-64h1054.214c31.419 0 56.889 25.47 56.889 56.889 0 10.009-2.641 19.841-7.656 28.503l-527.107 910.458c-15.742 27.191-50.546 36.472-77.737 20.73-8.602-4.98-15.75-12.128-20.73-20.73l-527.107-910.458c-15.742-27.191-6.461-61.994 20.73-77.737 8.662-5.015 18.494-7.656 28.503-7.656zM682.667 106.667h-113.778v113.778h113.778v-113.778zM682.667 334.222h-113.778v227.556h113.778v-227.556z" />
<glyph unicode="&#xe937;" glyph-name="edit" d="M0 146.668v-210.668h210.668l621.332 621.332-210.668 210.668-621.332-621.332zM1008.061 739.719c21.252 21.252 21.252 55.581 0 76.833l-127.51 127.51c-21.252 21.252-55.581 21.252-76.833 0l-99.719-99.719 204.342-204.342 99.719 99.719z" />
<glyph unicode="&#xe938;" glyph-name="medium" horiz-adv-x="1290" d="M152.951 751.106c1.603 15.834-4.435 31.483-16.259 42.14l-120.434 145.082v21.672h373.947l289.041-633.905 254.115 633.905h356.484v-21.672l-102.971-98.728c-8.877-6.767-13.281-17.888-11.441-28.896v-725.409c-1.84-11.008 2.564-22.129 11.441-28.896l100.562-98.728v-21.672h-505.822v21.672l104.175 101.136c10.237 10.234 10.237 13.244 10.237 28.896v586.347l-289.643-735.643h-39.141l-337.215 735.643v-493.037c-2.812-20.729 4.073-41.598 18.667-56.588l135.488-164.346v-21.672h-384.184v21.672l135.488 164.346c14.488 15.015 20.971 36.023 17.463 56.588v570.093z" />
<glyph unicode="&#xe939;" glyph-name="trend" horiz-adv-x="1707" d="M1194.667 960l195.413-195.413-416.427-416.427-341.333 341.333-632.32-633.173 120.32-120.32 512 512 341.333-341.333 537.6 536.747 195.413-195.413v512z" />
<glyph unicode="&#xe93a;" glyph-name="bars" horiz-adv-x="896" d="M85.333 277.333v0c47.128 0 85.333-38.205 85.333-85.333v-170.667c0-47.128-38.205-85.333-85.333-85.333v0c-47.128 0-85.333 38.205-85.333 85.333v170.667c0 47.128 38.205 85.333 85.333 85.333zM426.667 618.667v0c47.128 0 85.333-38.205 85.333-85.333v-512c0-47.128-38.205-85.333-85.333-85.333v0c-47.128 0-85.333 38.205-85.333 85.333v512c0 47.128 38.205 85.333 85.333 85.333zM768 960v0c47.128 0 85.333-38.205 85.333-85.333v-853.333c0-47.128-38.205-85.333-85.333-85.333v0c-47.128 0-85.333 38.205-85.333 85.333v853.333c0 47.128 38.205 85.333 85.333 85.333z" />
<glyph unicode="&#xe93b;" glyph-name="hide" horiz-adv-x="1182" d="M199.342 897.492l813.235-887.166-58.065-53.226-813.235 887.166 58.065 53.226zM228.228 691.103l133.415-145.552c-24.994-39.877-39.406-86.771-39.406-136.936 0-144.935 120.302-262.564 268.531-262.564 40.833 0 79.547 8.926 114.21 24.891l107.502-117.183c-69.007-25.208-143.706-38.989-221.713-38.989-268.531 0-497.857 163.315-590.769 393.846 46.26 114.778 126.335 212.894 228.228 282.487zM590.769 802.462c268.531 0 497.857-163.315 590.769-393.846-45.652-113.272-124.239-210.316-224.228-279.733l-134.785 147.085c23.372 38.934 36.775 84.27 36.775 132.648 0 144.935-120.302 262.564-268.531 262.564-39.043 0-76.148-8.161-109.628-22.832l-107.186 116.891c67.639 24.084 140.649 37.223 216.814 37.223zM438.851 461.334l188.891-206.111c-11.868-2.713-24.246-4.147-36.973-4.147-89.152 0-161.119 70.367-161.119 157.538 0 18.501 3.242 36.244 9.201 52.719zM590.769 566.154c89.152 0 161.119-70.367 161.119-157.538 0-16.583-2.604-32.558-7.436-47.556l-185.169 202.103c10.18 1.963 20.707 2.991 31.486 2.991z" />
<glyph unicode="&#xe93c;" glyph-name="email" horiz-adv-x="1317" d="M839.461 425.765l442.298-448.25c-24.107-25.484-58.643-41.514-96.844-41.514v0h-1053.257c-38.053 0-72.47 15.907-96.564 41.219l445.894 446.278 177.298-103.497 181.175 105.765zM0.512 703.781l370.542-216.137-371.054-393.832 0.512 609.969zM1316.498 704.073v-608.183l-370.981 391.826 370.981 216.357zM1184.914 960c72.411 0 131.657-57.6 131.657-128v0l-658.286-384-657.701 383.707c0.073 67.173 52.948 122.501 120.32 127.866l10.752 0.426h1053.257z" />
<glyph unicode="&#xe93d;" glyph-name="arrow-curly" horiz-adv-x="1039" d="M309.802 646.529c-2.132 0.492-12.458 2.917-22.805 5.257-38.703 8.731-76.674 4.031-113.381-6.699-40.426-11.822-66.377-39.056-79.203-77.784-7.743-23.366-3.457-44.931 10.895-65.384 9.183-13.073 21.264-23.101 34.872-31.319 16.987-10.263 34.807-19.323 54.287-24.074 45.078-11.003 90.104-21.896 136.995-22.16 71.015-0.398 138.986 13.054 205.267 35.165 4.773 1.591 7.749 7.564 6.098 12.434-11.735 34.417-29.762 65.545-54.828 92.886-2.625 2.867-5.753 5.409-8.957 7.691-48.666 34.7-99.405 65.080-169.241 73.988zM326.422 684.16c73.448-8.76 128.849-41.221 181.169-80.269 19.453-14.523 33.202-33.73 44.344-54.74 9.816-18.525 18.678-37.543 28.012-56.317 2.365-4.753 8.373-7.171 13.364-5.030 8.449 3.631 17.044 7.086 25.053 11.531 36.935 20.479 71.091 44.793 100.773 74.724 42.975 43.331 74.888 93.841 96.817 150.529 5.889 15.218 4.041 21.142-9.137 29.808-18.716 12.316-37.713 24.22-56.575 36.31-4.435 2.842-9.033 5.488-13.2 8.68-7.53 5.787-6.247 17.961 2.263 23.363 2.209 1.409 4.434 2.815 6.765 4.020 38.568 19.943 78.265 37.463 118.83 53.048 10.988 4.227 22.622 7.139 34.209 9.442 18.452 3.668 29.979-4.398 34.669-23.224 1.267-5.061 2.185-10.235 2.961-15.4 7.585-50.386 15.11-100.774 22.609-151.165 0.383-2.569 0.344-5.2 0.437-7.811 0.41-12.004-9.867-20.392-20.71-16.313-7.355 2.762-14.525 6.287-21.261 10.297-15.856 9.452-31.254 19.636-47.101 29.094-16.583 9.905-23.681 7.973-30.054-9.086-11.504-30.792-28.437-58.529-45.961-86.18-27.007-42.634-62.621-77.272-102.233-107.693-21.689-16.657-46.684-29.115-70.34-43.232-5.611-3.356-11.717-5.952-17.721-8.623-9.521-4.23-14.087-11.331-13.234-21.677 0.438-5.197 0.932-10.406 1.762-15.559 8.249-51.075 2.312-101.339-6.494-151.72-14.076-80.559-44.050-155.412-80.217-228.13-4.544-9.134-11.974-16.914-18.445-25.025-2.984-3.736-11.89-3.725-14.178 0.072-1.898 3.137-3.307 7.25-3.026 10.781 0.288 3.671 2.584 7.298 4.471 10.693 46.226 82.918 78.054 170.726 90.991 264.983 5.165 37.586 8.118 75.222 1.222 113.011-0.7 3.841-1.32 7.697-2.126 11.52-1.268 6.009-5.74 9.572-11.172 8.278-12.788-3.057-25.663-5.943-38.191-9.856-59.672-18.633-120.934-27.47-183.384-24.4-54.093 2.666-107.792 9.683-158.322 31.716-17.044 7.43-33.158 16.279-48.107 27.198-16.249 11.864-28.999 26.759-37.951 44.691-10.303 20.641-13.673 42.245-8.267 64.74 13.243 55.156 46.565 93.5 101.304 110.137 40.444 12.302 82.492 17.404 124.961 7.499 9.002-2.095 18.019-4.16 20.42-4.714z" />
<glyph unicode="&#xe93e;" glyph-name="prefs" d="M341.333 618.667c0 79.36-54.613 145.92-128 164.693v133.973c0 23.893-18.773 42.667-42.667 42.667s-42.667-18.773-42.667-42.667v-133.973c-73.387-18.773-128-85.333-128-164.693s54.613-145.92 128-164.693v-475.307c0-23.893 18.773-42.667 42.667-42.667s42.667 18.773 42.667 42.667v475.307c73.387 18.773 128 85.333 128 164.693zM170.667 533.333c-46.933 0-85.333 38.4-85.333 85.333s38.4 85.333 85.333 85.333c46.933 0 85.333-38.4 85.333-85.333s-38.4-85.333-85.333-85.333zM554.667 356.693v560.64c0 23.893-18.773 42.667-42.667 42.667s-42.667-18.773-42.667-42.667v-560.64c-73.387-18.773-128-85.333-128-164.693s54.613-145.92 128-164.693v-48.64c0-23.893 18.773-42.667 42.667-42.667s42.667 18.773 42.667 42.667v48.64c73.387 18.773 128 85.333 128 164.693s-54.613 145.92-128 164.693zM512 106.667c-46.933 0-85.333 38.4-85.333 85.333s38.4 85.333 85.333 85.333c46.933 0 85.333-38.4 85.333-85.333s-38.4-85.333-85.333-85.333zM1024 704c0 79.36-54.613 145.92-128 164.693v48.64c0 23.893-18.773 42.667-42.667 42.667s-42.667-18.773-42.667-42.667v-48.64c-73.387-18.773-128-85.333-128-164.693s54.613-145.92 128-164.693v-560.64c0-23.893 18.773-42.667 42.667-42.667s42.667 18.773 42.667 42.667v560.64c73.387 18.773 128 85.333 128 164.693zM853.333 618.667c-46.933 0-85.333 38.4-85.333 85.333s38.4 85.333 85.333 85.333c46.933 0 85.333-38.4 85.333-85.333s-38.4-85.333-85.333-85.333z" />
<glyph unicode="&#xe93f;" glyph-name="bolt-hollow" horiz-adv-x="585" d="M457.483 960h-359.959c-53.861 0-97.524-43.663-97.524-97.524v-438.857l0.267-7.278c3.723-50.462 45.844-90.245 97.256-90.245h48.762v-209.729c0-53.861 43.663-97.524 97.524-97.524 34.686 0 66.762 18.423 84.239 48.384l207.675 356.015c27.139 46.524 11.424 106.239-35.1 133.378l-7.62 4.005c-12.956 6.096-27.131 9.28-41.52 9.28h-31.303l124.529 248.957c24.087 48.175 4.561 106.755-43.614 130.842-13.542 6.771-28.474 10.296-43.614 10.296zM97.524 862.476h359.959l-195.048-390.095h189.050l-207.675-355.913v307.151h-146.286v438.857z" />
<glyph unicode="&#xe940;" glyph-name="fav-hollow" horiz-adv-x="1075" d="M489.737 919.042c-20.777-10.985-37.233-28.839-46.454-50.651l-91.897-217.28-235.056-20.029c-56.351-4.793-98.146-54.359-93.354-110.71l1.129-8.77c4.004-23.159 15.878-44.337 33.758-59.865l178.783-155.288-53.628-230.57c-12.818-55.082 21.444-110.126 76.527-122.944l8.713-1.634c23.325-3.336 47.193 1.467 67.506 13.758l201.836 122.15 201.836-122.15c48.386-29.277 111.344-13.786 140.621 34.6l4.257 7.776c10.409 21.138 13.249 45.318 7.868 68.443l-53.679 230.57 178.834 155.288c42.699 37.083 47.252 101.759 10.169 144.458l-6.081 6.42c-16.883 16.349-38.959 26.46-62.555 28.467l-235.107 20.029-91.846 217.28c-22.022 52.090-82.102 76.465-134.192 54.443l-7.988-3.792zM421.661 554.281l115.939 274.235 115.939-274.235 296.653-25.231-225.379-195.735 67.634-290.644-254.847 154.201-254.846-154.201 67.634 290.644-225.379 195.735 296.653 25.231z" />
<glyph unicode="&#xe941;" glyph-name="trend-hollow" horiz-adv-x="1075" d="M802.727 909.586l-144.86-38.815c-71.484-19.154-113.906-92.631-94.752-164.116l3.11-10.021c6.978-19.722 18.448-37.447 33.385-51.829l4.325-3.891-58.361-103.257-91.798 54.11c-70.151 41.364-159.741 20.616-204.917-45.761l-6.871-11.064-191.252-338.923c-40.075-71.019-15.919-161.049 54.324-202.468 67.56-39.836 153.841-19.855 197.349 44.071l6.102 9.753 120.484 213.203 91.927-54.181c70.151-41.364 159.741-20.616 204.917 45.761l6.76 10.868 128.499 227.032 7.976-2.367c56.036-14.476 117.127 9.012 147.991 61.356 18.157 30.793 23.174 67.593 13.922 102.123l-40.14 149.805c-21.956 81.94-106.18 130.567-188.121 108.612zM829.23 810.676c25.363 6.796 51.382-6.695 60.829-30.525l1.878-5.678 40.14-149.805c2.139-7.983 0.979-16.49-3.218-23.608-7.678-13.021-23.446-18.318-37.143-13.268l-5.019 2.384-20.766 12.235c-22.713 12.861-51.081 6.478-66.269-13.934l-3.512-5.392-153.107-270.381c-13.258-22.484-41.023-31.118-64.375-21.017l-5.735 2.918-137.637 81.147c-22.724 12.843-51.086 6.437-66.258-13.986l-3.507-5.395-146.119-258.519c-12.771-21.659-40.682-28.864-62.341-16.093-20.333 11.99-28.438 36.878-19.899 58.217l2.745 5.719 191.739 339.766c13.258 22.484 41.023 31.118 64.375 21.017l5.735-2.918 137.571-81.108c22.724-12.843 51.086-6.437 66.258 13.986l3.507 5.395 107.537 190.269c12.677 22.429 6.615 50.416-13.303 65.739l-5.265 3.556-21.57 12.719c-7.133 4.206-12.33 11.043-14.473 19.042-4.106 15.325 3.788 31.038 17.923 37.162l4.422 1.54 144.86 38.815z" />
<glyph unicode="&#xe942;" glyph-name="tv" horiz-adv-x="979" d="M773.901 922.203c15.636-16.452 16.228-41.73 2.207-58.844l-3.809-4.099-128.248-121.862 112.818-0.007c119.708 0 217.347-94.489 222.403-212.952l0.206-9.656v-356.174c0-119.708-94.489-217.347-212.952-222.403l-9.656-0.206h-534.261c-119.708 0-217.347 94.489-222.403 212.952l-0.206 9.656v356.174c0 119.708 94.489 217.347 212.952 222.403l9.656 0.206 112.15 0.007-128.216 121.862c-17.823 16.939-18.541 45.119-1.602 62.943 15.729 16.55 41.151 18.351 58.973 4.961l3.97-3.36 196.122-186.406h50.799l196.153 186.406 3.97 3.36c17.822 13.389 43.244 11.589 58.973-4.961zM756.87 648.348h-534.261c-71.132 0-129.276-55.604-133.338-125.717l-0.227-7.848v-356.174c0-71.132 55.604-129.276 125.717-133.338l7.848-0.227h534.261c71.132 0 129.276 55.604 133.338 125.717l0.227 7.848v356.174c0 73.766-59.799 133.565-133.565 133.565zM445.217 468.83c8.76 0 17.326-2.584 24.624-7.43l131.969-87.611c20.485-13.6 26.067-41.231 12.468-61.716-3.283-4.946-7.522-9.185-12.468-12.468l-131.969-87.611c-20.485-13.6-48.117-8.018-61.716 12.468-4.845 7.298-7.43 15.864-7.43 24.624v175.221c0 24.589 19.933 44.522 44.522 44.522z" />
<glyph unicode="&#xe943;" glyph-name="muzlitv" horiz-adv-x="5332" d="M4350.197 500.966c13.529 0 23.193 3.666 28.992 10.998 5.476 6.375 7.248 15.301 5.315 26.777v0l-4.832 5.738c-2.255 0.319-4.671 1.594-7.248 3.825-0.644 0.638-1.45 1.116-2.416 1.434s-1.772 0.797-2.416 1.434c-0.644 1.913-1.45 3.507-2.416 4.782s-1.933 2.55-2.899 3.825c-0.644 1.594-0.805 3.267-0.483 5.021s0.805 3.746 1.45 5.977c0.322 1.913 0.644 3.825 0.966 5.738s0.483 3.825 0.483 5.738c1.289 1.913 2.255 4.622 2.899 8.129-0.322 0.956-0.161 2.311 0.483 4.064s1.289 3.427 1.933 5.021c1.611 3.825 2.899 7.81 3.866 11.954 1.289 1.594 2.174 3.028 2.658 4.303s1.852 3.028 4.107 5.26v0l1.933 7.172c1.611 4.463 3.463 9.882 5.557 16.257s5.557 12.273 10.389 17.692c1.611 6.694 3.705 12.671 6.282 17.931s5.798 10.759 9.664 16.497c2.255 7.969 4.671 15.221 7.248 21.756s5.315 12.99 8.214 19.366c2.899 6.375 5.637 12.751 8.214 19.126s5.476 13.707 8.697 21.995c5.798 0.638 12.241 1.355 19.328 2.152s14.496 1.674 22.227 2.63c10.63 1.594 21.583 3.028 32.857 4.303s21.744 1.913 31.408 1.913v0h6.765c1.933 0 4.671-0.159 8.214-0.478 1.933 0.638 3.704 1.195 5.315 1.674s3.060 1.036 4.349 1.674c2.255 0.956 4.188 1.674 5.798 2.152s4.027 0.717 7.248 0.717v0h5.315l4.832 6.216c1.933 1.275 3.543 2.55 4.832 3.825v0l2.416 4.782c1.289 11.157-0.403 19.605-5.074 25.343s-9.422 10.52-14.254 14.345c-2.577 1.913-4.832 3.825-6.765 5.738s-3.543 3.985-4.832 6.216v0l-5.798 4.303c-4.51 0.638-9.181 1.116-14.013 1.434s-9.986 0.478-15.462 0.478c-12.563 0-25.448-0.797-38.656-2.391s-26.254-3.188-39.139-4.782c-9.342-1.275-18.361-2.47-27.059-3.586s-17.234-1.992-25.609-2.63c-1.611 1.913-3.866 3.905-6.765 5.977s-8.053 2.949-15.462 2.63v0l-5.315-2.869c-0.644-1.275-1.208-2.391-1.691-3.347s-1.53-3.188-3.141-6.694c-17.073-0.956-33.018-2.391-47.836-4.303-13.529-1.275-26.737-2.391-39.622-3.347s-25.448-1.434-37.689-1.434v0h-7.973c-2.738 0-5.396 0.159-7.973 0.478v0h-7.248l-1.933-8.607c-0.966-0.956-1.933-2.152-2.899-3.586s-1.772-3.746-2.416-6.933c0-6.057 0.644-11.316 1.933-15.779s2.738-8.607 4.349-12.432c0.966-2.55 1.852-4.861 2.658-6.933s1.369-4.383 1.691-6.933v0-5.26l5.315-1.434c1.611-0.319 3.382-2.231 5.315-5.738v0l3.382-3.825c3.543-1.913 6.926-3.108 10.147-3.586s6.12-0.717 8.698-0.717v0h24.643c2.255 0.956 5.315 1.434 9.181 1.434v0h11.597c2.255 0 4.51 0.080 6.765 0.239s4.671 0.877 7.248 2.152c1.289-0.319 3.382-0.478 6.282-0.478 3.866 0 7.892 0.478 12.080 1.434 1.933 0.319 3.785 0.558 5.557 0.717s3.785 0.239 6.040 0.239c-0.322-1.913-1.047-4.144-2.174-6.694s-2.335-5.1-3.624-7.651c-1.933-4.144-3.704-8.208-5.315-12.193s-2.416-8.049-2.416-12.193c-0.644-0.319-2.094-1.434-4.349-3.347v0l-5.315-5.26c-2.255-8.288-4.832-16.417-7.731-24.386s-5.959-15.779-9.181-23.43c-5.798-14.345-11.113-29.088-15.945-44.23s-6.926-33.87-6.281-56.184c1.611-2.231 2.819-4.782 3.624-7.651s1.691-6.057 2.658-9.563c0.966-4.463 2.174-8.766 3.624-12.91s3.463-7.969 6.040-11.476c0-1.275-0.161-3.507-0.483-6.694v0l5.315-2.869c1.933-1.275 4.51-2.391 7.731-3.347 0.644-0.638 1.45-1.036 2.416-1.195s1.772-0.558 2.416-1.195c1.611-2.231 3.382-3.746 5.315-4.543s4.349-1.833 7.248-3.108c0.322-0.638 1.611-2.072 3.866-4.303v0l6.765-0.478zM4695.681 506.943c5.798-0.478 11.436 0.558 16.912 3.108s10.55 6.375 15.221 11.476c4.671 5.1 8.456 11.476 11.355 19.126-0.322 2.55-0.403 4.702-0.242 6.455s0.403 3.427 0.725 5.021c0.322 1.594 0.483 3.188 0.483 4.782s-0.322 3.666-0.966 6.216c7.087 6.375 14.093 14.106 21.019 23.191s10.711 18.728 11.355 28.929c1.933 0 3.302 0.638 4.107 1.913s1.611 2.55 2.416 3.825c0.805 1.275 1.691 2.391 2.658 3.347s2.416 1.434 4.349 1.434c6.765 15.939 15.060 31.001 24.885 45.186s20.053 27.893 30.683 41.122c10.63 13.229 21.261 25.9 31.891 38.014s20.294 23.908 28.992 35.384c-0.322 6.057 0.966 11.237 3.866 15.54s4.993 9.165 6.282 14.584c-1.933-0.956-2.98-0.956-3.141 0s-0.081 2.231 0.242 3.825c0.322 1.594 0.564 3.427 0.725 5.499s-0.242 3.746-1.208 5.021c-1.933 5.1-3.382 8.926-4.349 11.476s-1.772 4.622-2.416 6.216c-0.644 1.594-1.369 3.267-2.174 5.021s-2.013 4.543-3.624 8.368c-4.51-0.638-8.053-0.717-10.63-0.239s-4.993 1.195-7.248 2.152c-2.255 0.956-4.51 1.913-6.765 2.869s-5.476 1.753-9.664 2.391c-19.328-18.808-35.193-35.703-47.595-50.685s-23.596-29.726-33.582-44.23c-9.986-14.504-19.892-29.646-29.716-45.425s-21.824-33.87-35.998-54.271c-2.255 7.013-3.785 15.221-4.59 24.625s-1.611 19.366-2.416 29.885c-0.805 10.52-1.772 21.198-2.899 32.037s-3.060 21.119-5.798 30.841c-2.738 9.723-6.604 18.648-11.597 26.777s-11.516 14.584-19.569 19.366c0.644 2.869 0.403 5.738-0.725 8.607s-2.899 5.658-5.315 8.368c-2.416 2.71-5.315 4.941-8.698 6.694s-7.167 2.949-11.355 3.586c-3.543-3.507-7.248-6.615-11.113-9.324s-7.087-6.455-9.664-11.237c-1.933-4.144-2.98-9.962-3.141-17.453s0.161-15.7 0.966-24.625c0.805-8.926 1.772-18.25 2.899-27.972s1.691-18.887 1.691-27.494c0-8.926-0.322-18.17-0.966-27.733s-0.161-18.808 1.45-27.733c0.644-4.144 1.852-7.73 3.624-10.759s2.497-6.455 2.174-10.28c-0.322-7.651 0.161-15.939 1.45-24.864s2.98-18.011 5.074-27.255c2.094-9.244 4.188-18.569 6.282-27.972s3.785-18.090 5.074-26.060c1.289 0 2.577-0.956 3.866-2.869s2.416-4.303 3.382-7.172c0.966-2.869 1.691-6.057 2.174-9.563s0.403-6.854-0.242-10.041c2.577-0.638 4.751-1.833 6.523-3.586s3.543-3.666 5.315-5.738c1.772-2.072 3.463-4.224 5.074-6.455s3.543-3.985 5.798-5.26c5.154-3.507 10.63-5.499 16.429-5.977zM4084.233 291.832c0 0 0 0-5.282 0 0 0-5.282 0-7.923-7.976 0-2.659-7.923-15.953-18.486-34.565 0 0 0 0-2.641-2.659-23.768-39.882-66.021-101.035-118.838-98.376h-2.641c-7.923 2.659-15.845 10.635-15.845 23.929 2.641 15.953 5.282 31.906 13.204 47.859 39.613 69.129 81.866 135.599 121.478 204.729 13.204 23.929 23.768 45.2 31.69 69.129 5.282 15.953-5.282 31.906-23.768 39.882-31.69 10.635-60.739 5.318-76.584-18.612-23.768-29.247-42.253-74.447-63.38-109.011-18.486-31.906-31.69-63.812-55.458-93.058-29.049-39.882-63.38-79.764-97.711-116.988-18.486-18.612-39.613-31.906-63.38-45.2-21.127-10.635-42.253 10.635-47.535 39.882-5.282 31.906-2.641 63.812 7.923 93.058 5.282 13.294 10.563 23.929 23.768 34.565 7.922 5.318 23.767 15.953 29.049 21.271 84.507 69.129 153.168 148.894 208.626 239.293 47.535 71.788 87.148 146.235 113.556 231.317 7.923 29.247 15.845 61.153 7.923 93.058-7.923 39.882-26.408 61.153-71.303 55.835-31.69-2.659-58.098-21.271-81.866-39.882-47.535-39.882-87.148-87.741-118.838-138.258-39.613-61.153-73.943-122.305-110.915-186.117-34.331-66.47-66.021-132.941-89.788-207.387-2.641-7.976-5.282-18.612-7.923-23.929 0-2.659-2.641-5.318-2.641-7.976-5.282-10.635-23.768-42.541-42.253-69.129-5.282-7.976-10.563-15.953-15.845-23.929-7.923-10.635-15.845-21.271-23.768-29.247-15.845-18.612-29.049-31.906-50.176-45.2-18.486-13.294-34.331-21.271-55.458-23.929-2.641 0-7.923 0-10.563 0-7.923 0-13.204 0-21.127 2.659-7.923 0-15.845 2.659-23.768 5.318-23.768 5.318-44.894 13.294-68.662 18.612-21.127 5.318-31.69 5.318-50.176 5.318-7.923 0-13.204 0-21.127 0-18.486 0-34.331-5.318-55.458-15.953 221.83 260.564 335.386 260.564 348.59 273.858 23.768 5.318 31.69 7.976 39.613 15.953 10.563 7.976 15.845 21.271 18.486 29.247 2.641 29.247-13.204 47.859-29.049 50.517-2.641 0-5.282 0-7.923 0h-2.641c-18.486 0-36.972-7.976-44.894-10.635-44.894-5.318-81.866-5.318-110.915-5.318-55.458 0-81.866 5.318-113.556 5.318-18.486 0-31.69 0-52.817-5.318-2.641 0-5.282-2.659-10.563-2.659 0 0-71.303-7.976-105.633-95.717l-2.641-2.659c0-2.659-34.331-71.788-47.535-93.058-26.408-47.859-55.458-85.082-76.584-111.67-31.69-34.565-71.303-69.129-110.915-69.129-5.282 0-10.563 0-15.845 2.659-2.641 0-7.923 2.659-10.563 2.659-13.204 5.318-10.563 29.247-7.923 37.223 2.641 10.635 5.282 21.271 10.563 29.247 31.69 61.153 68.662 116.988 100.352 178.141 18.486 29.247 34.331 61.153 50.176 93.058 5.282 13.294 0 29.247-13.204 34.565-26.408 15.953-73.943 15.953-95.070-10.635-15.845-21.271-26.408-39.882-39.613-63.812-47.535-77.106-92.429-156.87-150.528-228.658-23.768-26.588-44.894-53.176-76.584-66.47-15.845-5.318-29.049-7.976-44.894 2.659s-18.486 23.929-15.845 37.223c2.641 15.953 7.923 29.247 13.204 45.2 23.768 61.153 60.739 114.329 95.070 164.846 13.204 21.271 26.408 39.882 39.613 61.153 15.845 23.929 7.923 53.176-18.486 63.812-5.282 2.659-10.563 2.659-15.845 2.659-29.049 7.976-58.098 2.659-71.303-23.929-23.768-34.565-44.894-69.129-68.662-109.011-21.127-29.247-34.331-66.47-55.458-93.058-29.049-39.882-63.38-79.764-97.711-116.988-23.768-26.588-50.176-50.517-81.866-66.47-15.845-7.976-29.049-15.953-44.894-2.659-15.845 10.635-15.845 26.588-13.204 42.541 7.923 31.906 10.563 66.47 23.768 95.717 29.049 74.447 66.021 148.894 97.711 223.34 21.127 47.859 42.253 95.717 60.739 146.235 13.204 34.565 5.282 71.788-21.127 103.694-26.408 26.588-63.38 31.906-105.633 23.929-58.098-15.953-110.915-45.2-155.809-82.423-7.923-7.976-18.486-13.294-23.768-21.271 0 7.976 2.641 13.294 2.641 18.612 13.204 39.882 26.408 77.106 10.563 122.305-7.923 21.271-18.486 37.223-36.972 50.517-42.253 23.929-81.866 18.612-118.838 7.976-63.38-18.612-113.556-55.835-158.45-98.376-13.204-13.294-26.408-23.929-39.613-39.882 5.282 26.588 13.204 53.176 13.204 79.764 0 69.129-39.613 111.67-108.274 132.941-52.817 15.953-105.633 13.294-158.45 2.659s-102.993-26.588-147.887-58.494c-29.049-21.271-58.098-42.541-71.303-79.764-7.923-21.271-7.923-42.541 0-66.47 10.563-26.588 39.613-42.541 68.662-21.271 34.331 23.929 66.021 50.517 100.352 74.447 52.817 39.882 105.633 74.447 174.295 79.764 23.768 2.659 42.253-7.976 50.176-29.247 2.641-10.635 5.282-23.929 0-34.565-7.923-23.929-15.845-50.517-26.408-71.788-31.69-58.494-68.662-114.329-105.633-170.164-47.535-71.788-100.352-146.235-147.887-218.023-34.331-53.176-68.662-109.011-97.711-162.188-15.845-23.929-23.768-53.176-21.127-82.423 5.282-42.541 63.38-66.47 89.788-53.176s42.253 34.565 58.098 58.494c26.408 47.859 55.458 95.717 81.866 143.576 68.662 127.623 147.887 252.587 237.675 364.257 44.894 58.494 95.070 111.67 155.809 154.211 26.408 18.612 55.458 31.906 89.788 34.565 13.204 2.659 23.768-5.318 23.768-18.612 2.641-15.953 7.923-31.906 2.641-47.859-10.563-31.906-23.768-66.47-39.613-95.717-63.38-109.011-126.76-215.364-190.14-324.375-26.408-45.2-52.817-95.717-73.943-143.576-13.204-23.929 0-61.153 26.408-71.788 29.049-15.953 66.021-15.953 79.225 15.953 55.458 109.011 113.556 215.364 169.013 321.716 44.894 85.082 105.633 162.188 187.499 215.364 29.049 21.271 60.739 34.565 97.711 42.541 21.127 5.318 34.331-5.318 31.69-23.929 0-13.294-2.641-23.929-10.563-34.565-23.768-47.859-52.817-93.058-76.584-140.917-42.253-71.788-87.148-146.235-110.915-231.317-10.563-37.223-18.486-77.106-2.641-119.647 26.408-74.447 108.274-130.282 190.14-90.4 44.894 23.929 76.584 55.835 108.274 93.058 7.923 10.635 18.486 21.271 23.768 29.247 0-7.976 2.641-10.635 2.641-13.294 7.923-31.906 18.486-63.812 50.176-82.423 47.535-26.588 92.429-21.271 132.042 7.976 44.894 29.247 71.303 71.788 100.352 116.988 7.923 13.294 18.486 26.588 23.768 42.541 0 0 2.641 0 2.641-2.659s-2.641-7.976-2.641-10.635c-5.282-23.929-15.845-47.859-15.845-69.129-2.641-34.565 13.204-69.129 50.176-85.082 23.768-10.635 50.176-5.318 73.943 7.976 39.613 21.271 89.788 47.859 116.197 82.423 5.282 5.318 7.923 13.294 13.204 18.612 29.049 26.588 76.584 98.376 105.633 135.599 26.408 34.565 44.894 77.106 79.225 109.011 13.204 5.318 23.768 10.635 42.253 15.953 26.408 2.659 73.943 2.659 163.732-10.635-23.768-15.953-31.69-26.588-63.38-45.2-36.972-23.929-89.788-53.176-132.042-82.423-60.739-45.2-100.352-95.717-145.246-164.846-2.641-2.659-2.641-10.635-5.282-21.271 0-7.976 0-18.612 0-26.588v-2.659c0-15.953 13.204-29.247 29.049-29.247h5.282c5.282 0 10.563 2.659 15.845 2.659 2.641 2.659 7.923 5.318 10.563 7.976 7.923 5.318 13.204 7.976 21.127 10.635 10.563 5.318 23.768 7.976 34.331 7.976 23.768 0 44.894-2.659 68.662-7.976 5.282 0 10.563-2.659 15.845-2.659 23.768-5.318 29.049-10.635 52.817-15.953s44.894-7.976 66.021-7.976c7.923 0 15.845 0 23.768 0 26.408 2.659 55.458 13.294 81.866 26.588 23.768 18.612 50.176 37.223 71.303 63.812 18.486 18.612 29.049 34.565 44.894 55.835 0-2.659 2.641-5.318 2.641-10.635 0-13.294 0-23.929 2.641-34.565 0 0 0 0 0-2.659 5.282-23.929 15.845-50.517 34.331-69.129 36.972-34.565 79.225-39.882 121.478-23.929 39.613 13.294 68.662 39.882 97.711 69.129 5.282 5.318 7.923 7.976 15.845 15.953 2.641-7.976 5.282-13.294 5.282-18.612 5.282-23.929 18.486-39.882 34.331-53.176 2.641-2.659 7.923-5.318 10.563-5.318l2.641-2.659c5.282-2.659 10.563-5.318 15.845-7.976 29.049-13.294 58.098-7.976 79.225 5.318 13.204 5.318 23.768 13.294 34.331 23.929 23.767 18.612 36.972 37.223 52.817 61.153 10.563 18.612 21.127 31.906 26.408 50.517 7.923 15.953 21.127 47.859 26.408 77.106 2.641 7.976 0 7.976 0 7.976zM3704.244 479.835l120.497 243.442c22.132 41.883 51.641 81.147 78.692 120.412 7.377 10.471 17.214 23.559 29.509 23.559 9.836 2.618 14.755 0 14.755-10.471-2.459-15.706-4.918-31.412-9.836-47.118-22.132-65.441-54.1-123.030-88.528-180.618s-73.773-112.559-118.037-162.295c-19.673-20.941-39.346-36.647-59.019-57.588 14.755 28.794 22.132 52.353 31.968 70.677zM4263.206 347.983c-19.457-13.222-2.614-29.028 50.528-47.418 177.883-30.516 303.124-48.358 375.723-53.526 108.898-7.752 170.268-2.383 280.667-27.283 73.599-16.6 177.883-30.516 312.852-41.747-348.538 96.224-548.878 147.814-601.020 154.772-78.213 10.437-282.167 44.432-312.852 41.747s-76.713-6.711-105.898-26.544zM4279.92 124.811c-13.281-8.842-1.82-19.359 34.383-31.551 121.223-20.114 206.577-31.846 256.061-35.196 74.226-5.026 116.069-1.365 191.296-17.823 50.151-10.972 121.223-20.114 213.217-27.425-237.473 63.702-373.978 97.838-409.514 102.409-53.304 6.856-192.296 29.255-213.217 27.425s-52.304-4.576-72.226-17.839zM1061.594 347.983c19.457-13.222 2.614-29.028-50.528-47.418-177.883-30.516-303.124-48.358-375.723-53.526-108.898-7.752-170.268-2.383-280.667-27.283-73.599-16.6-177.883-30.516-312.852-41.747 348.538 96.224 548.878 147.814 601.020 154.772 78.213 10.437 282.167 44.432 312.852 41.747s76.713-6.711 105.898-26.544zM1044.88 124.811c13.281-8.842 1.82-19.359-34.383-31.551-121.223-20.114-206.577-31.846-256.061-35.196-74.226-5.026-116.069-1.365-191.296-17.823-50.151-10.972-121.223-20.114-213.217-27.425 237.473 63.702 373.978 97.838 409.514 102.409 53.304 6.856 192.296 29.255 213.217 27.425s52.304-4.576 72.226-17.839z" />
<glyph unicode="&#xe944;" glyph-name="instagram-full" horiz-adv-x="3663" d="M286.784 921.030c1.918-96.257 1.068-256.405 0.989-311.081-0.099-59.605 0-164.143-2.313-230.022-1.918-54.675-12.575-104.967-43.023-146.86-25.406-34.956-69.28-56.624-79.561-47.544-9.174 8.145 2.926 29.325 10.479 60.638 7.474 30.884 11.626 62.138 11.626 161.142 0 73.147 2.155 423.705 2.155 462.753 0 21.823 0.494 33.651-9.767 25.155-55.262-45.634-99.194-149.685-89.17-242.805 7.81-72.115 45.653-79.753 32.406-102.395-11.25-19.271-148.465 39.516-115.506 178.465 26.079 109.721 108.487 197.034 183.441 227.957 5.951 2.455 13.207 3.566 21.037 3.566 33.256 0 76.852-19.855 77.208-38.97zM2850.703 493.155c-2.432-51.46-13.979-91.697-28.313-120.048-14.433-28.487-36.854-46.784-58.544-46.784-20.108 0-39.563 15.725-51.347 53.74-13.346 43.062-13.959 114.923-4.35 175.035 9.708 61.144 36.993 107.344 82.111 103.193 44.506-4.111 65.345-60.618 60.442-165.137zM2100.372 173.871c-0.593-85.52-14.236-160.48-43.537-182.284-12.357-9.178-26-13.581-38.752-13.581-30.073 0-55.163 24.454-47.056 68.295 10.242 55.182 58.623 111.592 129.464 180.472 0 0 0.138-15.725-0.119-52.902zM2089.043 493.681c-2.531-46.901-14.908-93.996-28.352-120.574-14.374-28.507-36.973-46.842-58.702-46.842-20.127 0-39.583 15.763-51.149 53.799-16.47 54.052-12.515 123.965-4.37 168.021 10.538 57.169 36.142 110.208 82.111 110.208 44.704 0 66.769-48.323 60.462-164.611zM1654.364 494.383c-2.728-49.648-12.535-91.152-28.313-121.276-14.829-28.331-37.151-46.628-58.702-46.628-19.95 0-39.207 15.686-51.189 53.584-17.933 56.858-11.823 134.35-4.37 176.224 11.092 62.119 38.831 106.155 82.171 102.005 44.466-4.267 66.077-60.618 60.402-163.909zM3646.272 436.395c-10.835 0-15.797-11.068-19.91-29.637-14.275-64.691-29.222-79.285-48.5-79.285-21.591 0-40.967 32.034-45.949 96.14-3.895 50.408-3.282 143.177 1.7 235.459 1.068 18.959-4.271 37.723-55.875 56.195-22.184 7.969-54.471 19.661-70.565-18.569-45.415-108.026-63.19-193.799-67.362-228.639-0.198-1.773-2.471-2.163-2.867 2.065-2.649 27.903-8.64 78.584-9.352 185.128-0.119 20.771-4.607 38.483-27.878 52.961-15.105 9.372-60.995 26.032-77.524 6.235-14.275-16.173-30.824-59.703-48.065-111.299-13.998-41.913-23.726-70.283-23.726-70.283s0.138 113.131 0.336 156.057c0.079 16.192-11.21 21.609-14.591 22.583-15.303 4.326-45.435 11.672-58.247 11.672-15.778 0-19.653-8.71-19.653-21.375 0-1.637-2.471-148.964-2.471-251.943v-14.555c-8.68-47.388-37.032-111.63-67.817-111.63-30.824 0-45.356 26.851-45.356 149.666 0 71.627 2.175 102.804 3.262 154.634 0.613 29.812 1.819 52.727 1.74 57.968-0.217 15.919-28.194 23.947-41.204 26.928-13.128 2.962-24.497 4.15-33.355 3.663-12.575-0.721-21.452-8.827-21.452-20.011 0-6.021 0.079-17.381 0.079-17.381-16.193 25.077-42.232 42.536-59.552 47.583-46.641 13.62-95.319 1.52-132.015-49.083-29.203-40.217-46.78-85.793-53.7-151.263-5.062-47.817-3.42-96.393 5.576-137.429-10.855-46.316-31.002-65.275-53.146-65.275-32.070 0-55.301 51.577-52.632 140.839 1.76 58.67 13.721 99.881 26.751 159.467 5.536 25.409 1.028 38.698-10.321 51.48-10.36 11.652-32.465 17.673-64.297 10.288-22.619-5.222-55.044-10.873-84.642-15.198 0 0 1.76 7.034 3.243 19.466 7.691 64.983-63.981 59.703-86.817 38.931-13.662-12.373-22.935-26.987-26.474-53.292-5.576-41.698 28.926-61.398 28.926-61.398-11.329-51.090-39.088-117.827-67.757-166.091-15.323-25.876-27.087-44.972-42.272-65.353-0.040 7.541-0.059 15.159-0.099 22.72-0.356 107.422 1.107 191.948 1.74 222.404 0.613 29.851 1.839 52.162 1.76 57.364-0.178 11.672-7.078 16.075-21.452 21.667-12.713 4.93-27.72 8.34-43.32 9.509-19.673 1.52-31.536-8.768-31.2-20.947 0.020-2.28 0.020-16.387 0.020-16.387-16.193 25.077-42.212 42.536-59.532 47.583-46.661 13.62-95.299 1.52-132.035-49.083-29.143-40.217-48.262-96.666-53.719-150.776-5.042-50.369-4.073-93.198 2.788-129.284-7.395-36.145-28.748-73.907-52.869-73.907-30.784 0-48.342 26.851-48.342 149.666 0 71.627 2.195 102.804 3.243 154.595 0.633 29.851 1.839 52.766 1.76 58.007-0.237 15.919-28.234 23.947-41.244 26.928-13.603 3.118-25.387 4.248-34.383 3.605-11.942-0.896-20.325-11.379-20.325-19.251v-18.082c-16.173 25.077-42.212 42.536-59.532 47.583-46.661 13.62-95.042 1.325-132.035-49.083-24.121-32.891-43.656-69.328-53.68-150.036-2.926-23.343-4.192-45.167-4.014-65.548-9.629-58.027-52.118-124.802-86.876-124.802-20.325 0-39.701 38.853-39.701 121.704 0 110.344 6.96 267.453 8.106 282.574 0 0 43.932 0.76 52.414 0.818 21.927 0.234 41.718-0.292 70.901 1.228 14.611 0.721 28.728 52.454 13.623 58.884-6.841 2.864-55.222 5.436-74.381 5.807-16.134 0.351-60.995 3.644-60.995 3.644s4.033 104.265 4.963 115.274c0.791 9.216-11.25 13.932-18.17 16.777-16.826 7.015-31.852 10.386-49.686 13.99-5.813 1.208-10.894 1.832-15.264 1.832-14.117 0-21.037-6.566-22.698-22.213-3.302-31.059-5.002-122.133-5.002-122.133-18.071 0-79.798 3.527-97.85 3.527-16.826 0-34.956-71.199-11.725-72.076 26.731-1.033 73.293-1.91 104.137-2.825 0 0-1.384-159.7-1.384-208.978 0-5.261 0.020-10.308 0.079-15.218-16.984-87.235-76.813-134.37-76.813-134.37 12.812 57.715-13.385 101.070-60.699 137.76-17.399 13.523-51.782 39.107-90.238 67.146 0 0 22.283 21.648 42.054 65.178 13.979 30.864 14.591 66.152-19.772 73.946-56.784 12.86-103.603-28.234-117.582-72.115-10.815-33.963-5.022-59.215 16.153-85.403 1.522-1.929 3.203-3.839 4.943-5.826-12.812-24.356-30.409-57.13-45.336-82.578-41.402-70.575-72.661-126.381-96.307-126.381-18.882 0-18.605 56.663-18.605 109.76 0 45.751 3.42 114.514 6.149 185.713 0.909 23.538-11.052 36.944-31.061 49.142-12.199 7.365-38.159 21.862-53.186 21.862-22.5 0-87.489-2.981-148.86-177.958-7.75-22.096-22.935-62.275-22.935-62.275l1.325 210.44c0 4.93-2.709 9.684-8.779 12.958-10.38 5.514-37.981 16.835-62.538 16.835-11.705 0-17.577-5.358-17.577-16.036l-2.116-329.241c0-24.98 0.652-54.149 3.183-66.912 2.491-12.802 6.544-23.187 11.547-29.364 5.002-6.157 10.795-10.873 20.365-12.821 8.897-1.812 57.595-7.969 60.106 10.347 3.045 21.979 3.144 45.732 28.708 134.428 39.82 137.994 91.701 205.354 116.099 229.262 4.271 4.15 9.115 4.423 8.877-2.436-1.008-30.26-4.686-105.843-7.138-170.105-6.643-171.898 25.11-203.756 70.466-203.756 34.699 0 83.594 33.963 135.989 119.97 32.682 53.584 64.416 106.116 87.232 144.015 15.877-14.516 33.73-30.105 51.525-46.784 41.441-38.717 55.005-75.544 45.969-110.422-6.861-26.714-32.88-54.208-79.086-27.455-13.504 7.775-19.258 13.815-32.801 22.622-7.256 4.696-18.388 6.118-25.051 1.169-17.28-12.86-27.186-29.208-32.86-49.492-5.516-19.738 14.532-30.144 35.292-39.224 17.854-7.872 56.309-14.965 80.806-15.783 95.497-3.137 171.993 45.439 225.238 170.768 9.55-108.221 50.101-169.462 120.587-169.462 47.116 0 94.33 59.995 115.011 119.054 5.912-24.045 14.71-44.991 26.059-62.703 54.293-84.799 159.675-66.542 212.584 5.456 16.371 22.252 18.862 30.241 18.862 30.241 7.711-67.984 63.289-91.756 95.062-91.756 35.668 0 72.443 16.621 98.205 73.81 3.025-6.196 6.347-12.12 9.925-17.751 54.313-84.799 159.675-66.542 212.604 5.456 2.491 3.39 4.666 6.469 6.564 9.236l1.542-44.699c0 0-30.171-27.279-48.737-44.036-81.657-73.771-143.7-129.713-148.267-194.871-5.833-83.085 62.518-113.969 114.26-118.022 54.945-4.267 102.021 25.603 130.908 67.477 25.426 36.807 42.074 116.132 40.848 194.423-0.475 31.371-1.305 71.218-1.898 113.949 28.649 32.832 60.936 74.297 90.712 122.834 32.406 52.902 67.144 123.926 84.919 179.224 0 0 30.171-0.253 62.36 1.812 10.321 0.682 13.287-1.403 11.388-8.846-2.313-8.983-40.71-154.946-5.674-252.138 23.983-66.542 78.058-87.956 110.147-87.956 37.487 0 73.353 27.922 92.63 69.387 2.294-4.618 4.745-9.139 7.375-13.23 54.273-84.799 159.3-66.444 212.584 5.456 12.041 16.251 18.882 30.241 18.882 30.241 11.408-70.38 66.927-92.106 98.739-92.106 33.117 0 64.554 13.406 90.099 72.874 1.048-26.188 2.709-47.622 5.398-54.364 1.621-4.15 11.013-9.294 17.854-11.827 30.31-11.048 61.233-5.826 72.68-3.566 7.909 1.578 14.117 7.853 14.947 24.045 2.214 42.478 0.85 113.813 13.919 166.871 21.927 89.008 42.37 123.536 52.078 140.585 5.457 9.626 11.566 11.146 11.804 1.052 0.435-20.537 1.443-80.746 9.945-161.629 6.268-59.508 14.591-94.698 21.017-105.843 18.249-31.8 40.828-33.32 59.236-33.32 11.685 0 36.162 3.196 33.948 23.441-1.048 9.879 0.791 70.926 22.421 158.57 14.137 57.267 37.645 109 46.147 127.901 3.163 6.956 4.607 1.52 4.567 0.429-1.819-39.418-5.813-168.41 10.499-238.966 22.105-95.555 85.987-106.253 108.269-106.253 47.551 0 86.441 35.638 99.57 129.459 3.144 22.583-1.522 40.003-15.56 40.003z" />
<glyph unicode="&#xe945;" glyph-name="share-lite" horiz-adv-x="1144" d="M578.259 947.953l-192.753-192.753h144.565v-433.694h96.376v433.694h144.565l-192.753 192.753zM1011.953 336.699v-295.889h-867.388v295.889l-96.376-0.469v-294.484c0-51.535 43.369-93.699 96.376-93.699h867.388c53.007 0 96.376 42.165 96.376 93.699v294.952h-96.376z" />
<glyph unicode="&#xe946;" glyph-name="favorite-hollow" horiz-adv-x="683" d="M585.142 960c53.102 0 96.645-50.181 97.511-111.904l0.013-1.874v-910.222l-341.333 170.667-341.333-170.667 0.488 910.222c0 61.952 42.535 112.753 95.431 113.763l1.606 0.015h487.617zM581.672 865h-480.44c-3.224-3.789-5.637-10.365-5.741-18.298l-0.003-0.531-0.407-756.416 246.252 123.125 246.333-123.166v756.508c0 7.762-2.332 14.338-5.556 18.267l-0.308 0.364-0.13 0.147z" />
<glyph unicode="&#xe947;" glyph-name="apple" d="M791.498 415.908c-1.294 129.682 105.758 191.876 110.542 194.966-60.152 88.020-153.85 100.078-187.242 101.472-79.742 8.074-155.596-46.948-196.066-46.948-40.368 0-102.818 45.754-168.952 44.552-86.916-1.292-167.058-50.538-211.812-128.38-90.304-156.698-23.126-388.84 64.89-515.926 43.008-62.204 94.292-132.076 161.626-129.58 64.842 2.588 89.362 41.958 167.756 41.958s100.428-41.958 169.050-40.67c69.774 1.296 113.982 63.398 156.692 125.796 49.39 72.168 69.726 142.038 70.924 145.626-1.548 0.706-136.060 52.236-137.408 207.134zM662.562 796.478c35.738 43.358 59.86 103.512 53.28 163.522-51.478-2.096-113.878-34.29-150.81-77.55-33.142-38.376-62.148-99.626-54.374-158.436 57.466-4.484 116.128 29.204 151.904 72.464z" />
<glyph unicode="&#xe948;" glyph-name="muzli-full" horiz-adv-x="3212" d="M3210.312 214.736c0 0 0 0-5.96 0 0 0-5.96 0-8.94-8.897 0-2.966-8.94-17.794-20.861-38.553 0 0 0 0-2.98-2.966-26.821-44.484-74.502-112.693-134.104-109.727h-2.98c-8.94 2.966-17.881 11.862-17.881 26.69 2.98 17.794 5.96 35.587 14.9 53.381 44.701 77.106 92.383 151.246 137.085 228.351 14.9 26.69 26.821 50.415 35.761 77.106 5.96 17.794-5.96 35.587-26.821 44.484-35.761 11.862-68.542 5.931-86.423-20.759-26.821-32.622-47.682-83.037-71.522-121.59-20.861-35.587-35.761-71.174-62.582-103.796-32.781-44.484-71.522-88.968-110.264-130.486-20.861-20.759-44.701-35.587-71.522-50.415-23.841-11.862-47.682 11.862-53.642 44.484-5.96 35.587-2.98 71.174 8.94 103.796 5.96 14.828 11.92 26.69 26.821 38.553 8.94 5.931 26.821 17.794 32.781 23.725 95.363 77.106 172.846 166.074 235.428 266.904 53.642 80.071 98.343 163.108 128.144 258.007 8.94 32.622 17.881 68.209 8.94 103.796-8.94 44.484-29.801 68.209-80.463 62.278-35.761-2.966-65.562-23.725-92.383-44.484-53.642-44.484-98.343-97.865-134.104-154.211-44.701-68.209-83.443-136.418-125.164-207.592-38.741-74.14-74.502-148.28-101.323-231.317-2.98-8.897-5.96-20.759-8.94-26.69 0-2.966-2.98-5.931-2.98-8.897-5.96-11.862-26.821-47.45-47.682-77.106-5.96-8.897-11.92-17.794-17.881-26.69-8.94-11.862-17.881-23.725-26.821-32.622-17.881-20.759-32.781-35.587-56.622-50.415-20.861-14.828-38.741-23.725-62.582-26.69-2.98 0-8.94 0-11.92 0-8.94 0-14.9 0-23.841 2.966-8.94 0-17.881 2.966-26.821 5.931-26.821 5.931-50.662 14.828-77.483 20.759-23.841 5.931-35.761 5.931-56.622 5.931-8.94 0-14.9 0-23.841 0-20.861 0-38.741-5.931-62.582-17.794 250.328 290.629 378.473 290.629 393.373 305.457 26.821 5.931 35.761 8.897 44.701 17.794 11.92 8.897 17.881 23.725 20.861 32.622 2.98 32.622-14.9 53.381-32.781 56.346-2.98 0-5.96 0-8.94 0h-2.98c-20.861 0-41.721-8.897-50.662-11.862-50.662-5.931-92.383-5.931-125.164-5.931-62.582 0-92.383 5.931-128.144 5.931-20.861 0-35.761 0-59.602-5.931-2.98 0-5.96-2.966-11.92-2.966 0 0-80.463-8.897-119.204-106.762l-2.98-2.966c0-2.966-38.741-80.071-53.642-103.796-29.801-53.381-62.582-94.899-86.423-124.555-35.761-38.553-80.463-77.106-125.164-77.106-5.96 0-11.92 0-17.881 2.966-2.98 0-8.94 2.966-11.92 2.966-14.9 5.931-11.92 32.622-8.94 41.518 2.98 11.862 5.96 23.725 11.92 32.622 35.761 68.209 77.483 130.486 113.244 198.695 20.861 32.622 38.741 68.209 56.622 103.796 5.96 14.828 0 32.622-14.9 38.553-29.801 17.794-83.443 17.794-107.284-11.862-17.881-23.725-29.801-44.484-44.701-71.174-53.642-86.002-104.303-174.97-169.866-255.042-26.821-29.656-50.662-59.312-86.423-74.14-17.881-5.931-32.781-8.897-50.662 2.966s-20.861 26.69-17.881 41.518c2.98 17.794 8.94 32.622 14.9 50.415 26.821 68.209 68.542 127.521 107.284 183.867 14.9 23.725 29.801 44.484 44.701 68.209 17.881 26.69 8.94 59.312-20.861 71.174-5.96 2.966-11.92 2.966-17.881 2.966-32.781 8.897-65.562 2.966-80.463-26.69-26.821-38.553-50.662-77.106-77.483-121.59-23.841-32.622-38.741-74.14-62.582-103.796-32.781-44.484-71.522-88.968-110.264-130.486-26.821-29.656-56.622-56.346-92.383-74.14-17.881-8.897-32.781-17.794-50.662-2.966-17.881 11.862-17.881 29.656-14.9 47.45 8.94 35.587 11.92 74.14 26.821 106.762 32.781 83.037 74.502 166.074 110.264 249.11 23.841 53.381 47.682 106.762 68.542 163.108 14.9 38.553 5.96 80.071-23.841 115.658-29.801 29.656-71.522 35.587-119.204 26.69-65.562-17.794-125.164-50.415-175.826-91.934-8.94-8.897-20.861-14.828-26.821-23.725 0 8.897 2.98 14.828 2.98 20.759 14.9 44.484 29.801 86.002 11.92 136.418-8.94 23.725-20.861 41.518-41.721 56.346-47.682 26.69-92.383 20.759-134.104 8.897-71.522-20.759-128.144-62.278-178.806-109.727-14.9-14.828-29.801-26.69-44.701-44.484 5.96 29.656 14.9 59.312 14.9 88.968 0 77.106-44.701 124.555-122.184 148.28-59.602 17.794-119.204 14.828-178.806 2.966s-116.224-29.656-166.886-65.243c-32.781-23.725-65.562-47.45-80.463-88.968-8.94-23.725-8.94-47.45 0-74.14 11.92-29.656 44.701-47.45 77.483-23.725 38.741 26.69 74.502 56.346 113.244 83.037 59.602 44.484 119.204 83.037 196.687 88.968 26.821 2.966 47.682-8.897 56.622-32.622 2.98-11.862 5.96-26.69 0-38.553-8.94-26.69-17.881-56.346-29.801-80.071-35.761-65.243-77.483-127.521-119.204-189.798-53.642-80.071-113.244-163.108-166.886-243.179-38.741-59.312-77.483-121.59-110.264-180.902-17.881-26.69-26.821-59.312-23.841-91.934 5.96-47.45 71.522-74.14 101.323-59.312s47.682 38.553 65.562 65.243c29.801 53.381 62.582 106.762 92.383 160.142 77.483 142.349 166.886 281.732 268.209 406.287 50.662 65.243 107.284 124.555 175.826 172.005 29.801 20.759 62.582 35.587 101.323 38.553 14.9 2.966 26.821-5.931 26.821-20.759 2.98-17.794 8.94-35.587 2.98-53.381-11.92-35.587-26.821-74.14-44.701-106.762-71.522-121.59-143.045-240.214-214.567-361.803-29.801-50.415-59.602-106.762-83.443-160.142-14.9-26.69 0-68.209 29.801-80.071 32.781-17.794 74.502-17.794 89.403 17.794 62.582 121.59 128.144 240.214 190.726 358.838 50.662 94.899 119.204 180.902 211.587 240.214 32.781 23.725 68.542 38.553 110.264 47.45 23.841 5.931 38.741-5.931 35.761-26.69 0-14.828-2.98-26.69-11.92-38.553-26.821-53.381-59.602-103.796-86.423-157.177-47.682-80.071-98.343-163.108-125.164-258.007-11.92-41.518-20.861-86.002-2.98-133.452 29.801-83.037 122.184-145.314 214.567-100.83 50.662 26.69 86.423 62.278 122.184 103.796 8.94 11.862 20.861 23.725 26.821 32.622 0-8.897 2.98-11.862 2.98-14.828 8.94-35.587 20.861-71.174 56.622-91.934 53.642-29.656 104.303-23.725 149.005 8.897 50.662 32.622 80.463 80.071 113.244 130.486 8.94 14.828 20.861 29.656 26.821 47.45 0 0 2.98 0 2.98-2.966s-2.98-8.897-2.98-11.862c-5.96-26.69-17.881-53.381-17.881-77.106-2.98-38.553 14.9-77.106 56.622-94.899 26.821-11.862 56.622-5.931 83.443 8.897 44.701 23.725 101.323 53.381 131.124 91.934 5.96 5.931 8.94 14.828 14.9 20.759 32.781 29.656 86.423 109.727 119.204 151.246 29.801 38.553 50.662 86.002 89.403 121.59 14.9 5.931 26.821 11.862 47.682 17.794 29.801 2.966 83.443 2.966 184.766-11.862-26.821-17.794-35.761-29.656-71.522-50.415-41.721-26.69-101.323-59.312-149.005-91.934-68.542-50.415-113.244-106.762-163.905-183.867-2.98-2.966-2.98-11.862-5.96-23.725 0-8.897 0-20.759 0-29.656v-2.966c0-17.794 14.9-32.622 32.781-32.622h5.96c5.96 0 11.92 2.966 17.881 2.966 2.98 2.966 8.94 5.931 11.92 8.897 8.94 5.931 14.9 8.897 23.841 11.862 11.92 5.931 26.821 8.897 38.741 8.897 26.821 0 50.662-2.966 77.483-8.897 5.96 0 11.92-2.966 17.881-2.966 26.821-5.931 32.781-11.862 59.602-17.794s50.662-8.897 74.502-8.897c8.94 0 17.881 0 26.821 0 29.801 2.966 62.582 14.828 92.383 29.656 26.821 20.759 56.622 41.518 80.463 71.174 20.861 20.759 32.781 38.553 50.662 62.278 0-2.966 2.98-5.931 2.98-11.862 0-14.828 0-26.69 2.98-38.553 0 0 0 0 0-2.966 5.96-26.69 17.881-56.346 38.741-77.106 41.721-38.553 89.403-44.484 137.085-26.69 44.701 14.828 77.483 44.484 110.264 77.106 5.96 5.931 8.94 8.897 17.881 17.794 2.98-8.897 5.96-14.828 5.96-20.759 5.96-26.69 20.861-44.484 38.741-59.312 2.98-2.966 8.94-5.931 11.92-5.931l2.98-2.966c5.96-2.966 11.92-5.931 17.881-8.897 32.781-14.828 65.562-8.897 89.403 5.931 14.9 5.931 26.821 14.828 38.741 26.69 26.821 20.759 41.721 41.518 59.602 68.209 11.92 20.759 23.841 35.587 29.801 56.346 8.94 17.794 23.841 53.381 29.801 86.002 2.98 8.897 0 8.897 0 8.897zM2784.158 401.568l146.025 275.801c26.821 47.45 62.582 91.934 95.363 136.418 8.94 11.862 20.861 26.69 35.761 26.69 11.92 2.966 17.881 0 17.881-11.862-2.98-17.794-5.96-35.587-11.92-53.381-26.821-74.14-65.562-139.383-107.284-204.626s-89.403-127.521-143.045-183.867c-23.841-23.725-47.682-41.518-71.522-65.243 17.881 32.622 26.821 59.312 38.741 80.071z" />
<glyph unicode="&#xe949;" glyph-name="fullscreen" d="M153.6 320h-153.6v-384h384v153.6h-230.4v230.4zM0 576h153.6v230.4h230.4v153.6h-384v-384zM870.4 89.6h-230.4v-153.6h384v384h-153.6v-230.4zM640 960v-153.6h230.4v-230.4h153.6v384h-384z" />
<glyph unicode="&#xe94a;" glyph-name="grid-stacked" d="M1024 704v-448h-128v192h-576v256h704zM704 960v-192h-448v-256h-256v448h704zM128 384h704v-448h-704v448z" />
<glyph unicode="&#xe94b;" glyph-name="time-hollow" d="M102.399 448.006c0 226.213 183.382 409.595 409.595 409.595s409.594-183.382 409.594-409.595c0-226.214-183.379-409.594-409.594-409.594-226.213 0-409.595 183.379-409.595 409.594zM511.994 960c-282.766 0-511.994-229.228-511.994-511.994s229.228-511.994 511.994-511.994c282.765 0 511.994 229.229 511.994 511.994s-229.229 511.994-511.994 511.994zM563.223 704.101c0 28.276-22.923 51.199-51.199 51.199s-51.199-22.923-51.199-51.199v-192.716c0.001-28.53 7.948-56.497 22.951-80.764 15-24.264 36.461-43.871 61.978-56.625l0.012-0.005 148.162-74.081c25.286-12.646 56.045-2.394 68.691 22.898s2.394 56.046-22.899 68.691l-148.182 74.091c-8.508 4.252-15.662 10.788-20.663 18.877s-7.65 17.41-7.651 26.92v192.714z" />
<glyph unicode="&#xe94c;" glyph-name="discord" d="M866.859 773.547c-60.191 28.408-130.126 50.863-203.325 63.888l-5.102 0.752c-0.181 0.037-0.39 0.058-0.604 0.058-1.186 0-2.219-0.654-2.759-1.621l-0.008-0.016c-8.96-16-18.944-36.864-25.941-53.333-35.182 5.625-75.744 8.839-117.056 8.839s-81.875-3.214-121.45-9.405l4.394 0.566c-9.204 21.511-18.014 39.029-27.717 55.97l1.391-2.637c-0.581 0.978-1.632 1.623-2.834 1.623-0.19 0-0.376-0.016-0.556-0.047l0.019 0.003c-78.291-13.746-148.229-36.203-213.589-66.812l5.162 2.172c-0.571-0.244-1.037-0.641-1.358-1.14l-0.007-0.012c-132.779-198.357-169.173-391.808-151.296-582.827 0.093-0.991 0.587-1.85 1.315-2.426l0.007-0.006c73.072-54.665 158.021-98.721 249.688-127.643l6.014-1.637c0.277-0.083 0.596-0.131 0.926-0.131 1.083 0 2.045 0.517 2.652 1.318l0.006 0.008c18.312 24.6 35.686 52.454 50.731 81.702l1.578 3.376c0.227 0.431 0.36 0.942 0.36 1.485 0 1.384-0.867 2.565-2.087 3.031l-0.022 0.007c-31.152 12.010-57.453 24.801-82.508 39.487l2.636-1.428c-0.988 0.579-1.641 1.635-1.641 2.844 0 1.065 0.506 2.011 1.292 2.611l0.008 0.006c6.364 4.765 11.531 8.848 16.6 13.044l-0.728-0.585c0.538 0.439 1.232 0.705 1.989 0.705 0.47 0 0.916-0.103 1.316-0.287l-0.020 0.008c167.595-76.501 349.013-76.501 514.645 0 0.388 0.184 0.844 0.291 1.324 0.291 0.763 0 1.464-0.271 2.009-0.722l-0.005 0.004c5.12-4.181 10.496-8.448 15.915-12.459 0.797-0.606 1.306-1.554 1.306-2.622 0-1.176-0.618-2.208-1.548-2.789l-0.014-0.008c-22.562-13.482-48.888-26.283-76.325-36.844l-3.589-1.215c-1.245-0.486-2.11-1.676-2.11-3.068 0-0.547 0.133-1.062 0.37-1.515l-0.009 0.018c15.36-29.781 32.939-58.112 52.267-85.035 0.596-0.816 1.55-1.34 2.625-1.34 0.342 0 0.672 0.053 0.981 0.151l-0.023-0.006c97.829 30.462 182.919 74.53 258.305 130.867l-2.22-1.587c0.743 0.531 1.252 1.349 1.364 2.288l0.002 0.016c21.333 220.885-35.755 412.757-151.424 582.827-0.275 0.575-0.737 1.023-1.306 1.273l-0.017 0.007zM342.187 305.92c-50.475 0-92.032 46.293-92.032 103.211 0 56.875 40.789 103.211 92.032 103.211 51.627 0 92.843-46.763 92.032-103.253 0-56.875-40.789-103.168-92.032-103.168zM682.453 305.92c-50.475 0-92.032 46.293-92.032 103.211 0 56.875 40.747 103.211 92.032 103.211 51.627 0 92.843-46.763 92.032-103.253 0-56.875-40.363-103.168-92.032-103.168z" />
<glyph unicode="&#xe94d;" glyph-name="cart" d="M384 32c0-53.020-42.98-96-96-96s-96 42.98-96 96c0 53.020 42.98 96 96 96s96-42.98 96-96zM1024 32c0-53.020-42.98-96-96-96s-96 42.98-96 96c0 53.020 42.98 96 96 96s96-42.98 96-96zM1024 448v384h-768c0 35.346-28.654 64-64 64h-192v-64h128l48.074-412.054c-29.294-23.458-48.074-59.5-48.074-99.946 0-70.696 57.308-128 128-128h768v64h-768c-35.346 0-64 28.654-64 64 0 0.218 0.014 0.436 0.016 0.656l831.984 127.344z" />
<glyph unicode="&#xe964;" glyph-name="server" d="M512 960c-282.77 0-512-71.634-512-160v-128c0-88.366 229.23-160 512-160s512 71.634 512 160v128c0 88.366-229.23 160-512 160zM512 416c-282.77 0-512 71.634-512 160v-192c0-88.366 229.23-160 512-160s512 71.634 512 160v192c0-88.366-229.23-160-512-160zM512 128c-282.77 0-512 71.634-512 160v-192c0-88.366 229.23-160 512-160s512 71.634 512 160v192c0-88.366-229.23-160-512-160z" />
<glyph unicode="&#xea32;" glyph-name="arrow-up" d="M512 928l-480-480h288v-512h384v512h288z" />
<glyph unicode="&#xea80;" glyph-name="code" horiz-adv-x="1280" d="M832 224l96-96 320 320-320 320-96-96 224-224zM448 672l-96 96-320-320 320-320 96 96-224 224zM701.298 809.481l69.468-18.944-191.987-704.026-69.468 18.944 191.987 704.026z" />
<glyph unicode="&#xeabe;" glyph-name="appleinc" d="M791.498 415.908c-1.294 129.682 105.758 191.876 110.542 194.966-60.152 88.020-153.85 100.078-187.242 101.472-79.742 8.074-155.596-46.948-196.066-46.948-40.368 0-102.818 45.754-168.952 44.552-86.916-1.292-167.058-50.538-211.812-128.38-90.304-156.698-23.126-388.84 64.89-515.926 43.008-62.204 94.292-132.076 161.626-129.58 64.842 2.588 89.362 41.958 167.756 41.958s100.428-41.958 169.050-40.67c69.774 1.296 113.982 63.398 156.692 125.796 49.39 72.168 69.726 142.038 70.924 145.626-1.548 0.706-136.060 52.236-137.408 207.134zM662.562 796.478c35.738 43.358 59.86 103.512 53.28 163.522-51.478-2.096-113.878-34.29-150.81-77.55-33.142-38.376-62.148-99.626-54.374-158.436 57.466-4.484 116.128 29.204 151.904 72.464z" />
<glyph unicode="&#x1f30a;" glyph-name="hot" horiz-adv-x="843" d="M739.504 736c-142.711-38.4-168.659-153.6-155.685-224-103.79 115.2-97.303 256-97.303 448-324.344-121.6-246.501-467.2-259.475-576-84.329 64-97.303 224-97.303 224-84.329-44.8-129.738-160-129.738-256 0-230.4 188.119-416 421.647-416s421.647 185.6 421.647 416c-6.487 134.4-103.79 198.4-103.79 384v0z" />
</font>
</defs>
</svg>
